2 сезон

iTunes

MVO

1

2 сезон

iTunes

iTunes

1 сезон

RePack

30

Ultimate

ВАЖНО

ИГРА 18+

pack

RePack

MK11
pack

Легкие деньги

RePack

jed

RePack

fifa19

RePack

RDR2

RePack

NEED FOR SPEED™ PAYBACK

4 сезон

9 сезон

Бесстыжие 9 сезон

Все сериалы

все сериалы на PB.wtf

RePack

FAR CRY 5

Anonymous, доброй ночи, мы не успеваем собрать деньги на оплату серверов за декабрь и январь, помогите нам пожалуйста в это трудное время. В качестве благодарности мы отключим Вам всю рекламу на сайте (укажите свой ник в строку Ваше имя)!

×
  
Magnet ссылка

Ленинград feat. Глюк'oZа, ST - Жу-Жу [2018 г., Рок, WEBRip 1080p] pb.wtf

Ленинград feat. Глюк'oZа, ST - Жу-Жу через торрент pb.wtf

Размер: 76 MB | Добавлен: 2 года 6 мес. назад | Торрент скачан:114 раз
Скачать  

20-07-2018 19:17 Ленинград feat. Глюк'oZа, ST - Жу-Жу Скачать торрент  

Ленинград feat. Глюк'oZа ST - Жу-Жу
Год выпуска: 2018
Страна: Россия
Жанр: Рок
Продолжительность: 00:05:22

Описание: Клип группы "Ленинград" и "Глюк'oZа" на песню Жу-Жу

Качество: WEBRip 1080p
Формат: MP4
Видео кодек: AVC
Аудио кодек: AAC
Видео: AVC, 1920x1080 , 25.0fps, 1854 Kbps
Аудио#1: AAC , 2 ch , 44,1 kHz , 128 kbps
Общее
Полное имя : D:Ленинград ft. Глюк'oZа ft. ST - Жу-Жу.mp4
Формат : MPEG-4
Профиль формата : Base Media
Идентификатор кодека : isom
Размер файла : 76,3 Мбайт
Продолжительность : 5 м. 22 с.
Общий поток : 1988 Кбит/сек
Программа кодирования : Lavf56.40.101

Видео
Идентификатор : 1
Формат : AVC
Формат/Информация : Advanced Video Codec
Профиль формата : High@L4.0
Параметр CABAC формата : Да
Параметр ReFrames формата : 3 кадра
Идентификатор кодека : avc1
Идентификатор кодека/Информация : Advanced Video Coding
Продолжительность : 5 м. 21 с.
Duration_FirstFrame : -40 мс.
Битрейт : 1854 Кбит/сек
Ширина : 1920 пикселей
Высота : 1080 пикселей
Соотношение сторон : 16:9
Режим частоты кадров : Переменный
Частота кадров : 25,000 кадров/сек
Минимальная частота кадров : 25,000 кадров/сек
Максимальная частота кадров : 25,098 кадров/сек
Цветовое пространство : YUV
Субдискретизация насыщенности : 4:2:0
Битовая глубина : 8 бит
Тип развёртки : Прогрессивная
Бит/(Пиксели*Кадры) : 0.036
Размер потока : 71,2 Мбайт (93%)
Основные цвета : BT.709
Характеристики трансфера : BT.709
Коэффициенты матрицы : BT.709

Аудио
Идентификатор : 2
Формат : AAC
Формат/Информация : Advanced Audio Codec
Профиль формата : LC
Идентификатор кодека : 40
Продолжительность : 5 м. 22 с.
Вид битрейта : Постоянный
Битрейт : 128 Кбит/сек
Каналы : 2 канала
Расположение каналов : Front: L R
Частота : 44,1 КГц
Метод сжатия : С потерями
Размер потока : 4,91 Мбайт (6%)

pb.wtf



Скачать Ленинград feat. Глюк'oZа, ST - Жу-Жу через торрент https://d.radikal.ru/d06/1807/00/be6a5500be04.jpg Скачать фильм Ленинград feat. Глюк'oZа, ST - Жу-Жу [2018 г., Рок, WEBRip 1080p]через торрент бесплантно в хорошем качестве Описание: Клип группы "Ленинград" и "Глюк'oZа" на песню ... 10 10 4
Торрент: Зарегистрирован [2018-07-20 19:17] · скачан: 114 раз
Статус: √ проверено
Размер: 76 MB
Как cкачать? Как скачать Ленинград feat. Глюк'oZа, ST - Жу-Жу через торрент | UTorrent



Последний раз редактировалось: Скорпион1976 (2018-07-21 17:32), всего редактировалось 1 раз

28-11-2019 20:33  

Отключить всю рекламу на сайте

    Дорогой пользователь! Огромная просьба, поблагодарите релизера, оцените раздачу и оставьте свои комментарий, если Вы скачали Ленинград feat. Глюк'oZа, ST - Жу-Жу через торрент бесплатно! Внесите свою лепту в развитие PiratBit!
    Комментировать посты могут только пользователи прошедшие не сложную регистрацию
    Показать сообщения:    

    Ленинград feat. Глюк'oZа, ST - Жу-Жу через торрент
    Скачать бесплатно Ленинград feat. Глюк'oZа, ST - Жу-Жу
    Ленинград feat. Глюк'oZа, ST - Жу-Жу скачать торрент
    Ленинград feat. Глюк'oZа, ST - Жу-Жу смотреть онлайн
    Cкачать фильм Ленинград feat. Глюк'oZа, ST - Жу-Жу бесплатно
    Ленинград feat. Глюк'oZа, ST - Жу-Жу скачать торрент в хорошем качестве
    Ленинград feat. Глюк'oZа, ST - Жу-Жу смотреть онлайн бесплатно в хорошем качестве


    Вы не можете начинать темы
    Вы не можете отвечать на сообщения
    Вы не можете редактировать свои сообщения
    Вы не можете удалять свои сообщения
    Вы не можете голосовать в опросах
    Вы не можете прикреплять файлы к сообщениям
    Вы можете скачивать файлы