ВНИМАНИЕ!!! Роскомнадзор заблокировал pb.wtf в РФ навсегда, просьба установить наш плагин который откроет доступ из РФ, для Хром, Ябраузер, Опера -> Mozilla FireFox и перейти на pb.wtf. о плагине

Лицензия

30

MVO

Как приручить дракона 3

11 сезон

1

1 сезон

гринч

iTunes

Стекло

iTunes

Клаустрофобы

8 сезон

Игра престолов

iTunes

Ральф против интернета Хит недели

ИГРА 18+

pack

ВАЖНО

!!Акция!!

Alien_RageХит недели

RePack

Resident Evil 21
pack

RePack

Metro:Exodus

!!Акция!!

Alien_Rage

RePack

fifa19

RePack

Assassins Creed: Odyssey

RePack

NEED FOR SPEED™ PAYBACK

3 сезон

9 сезон

Бесстыжие 9 сезон

Все сериалы

все сериалы на PB.wtf

RePack

FAR CRY 5
Ребята, критически не успеваем дособрать 3200р. для оплаты серверов за Март (всвязи с блокировками трафик упал в 3 раза), 1-2р., выручайте.
  

Робин Уильямс: Загляни в мою душу / Robin Williams: Come Inside My Mind (Марина Зинович) [2018, документальный, DVBRip от R.G. Resident, MVO] pb.wtf

Скачать  

20-07-2018 21:02 Робин Уильямс: Загляни в мою душу Скачать торрент  

Робин Уильямс: Загляни в мою душу / Robin Williams: Come Inside My Mind
««This intimate portrait examines one of the world's most beloved and inventive comedians»»

Год выпуска: 2018
Страна: США
Жанр: документальный
Продолжительность: 01:51:40
Перевод: Профессиональный [двухголосый] (SDI media)
Режиссер: Марина Зинович
В ролях:

Робин Уильямс (играет самого себя, хроника), Билли Кристал (играет самого себя), Пэм Доубер (играет саму себя), Вупи Голдберг (играет саму себя), Бобкэт Голдтуэйт (играет самого себя), Эрик Айдл (играет самого себя), Дэвид Леттерман (играет самого себя), Стив Мартин (играет самого себя), Дэвид Стейнберг (играет самого себя), Валери Веларди (играет саму себя)
Описание:
Трогательный и глубокий документальный портрет одного из самых обожаемых комиков в мире. Используя богатый архив, который до этого никто никогда не видел, авторы фильма рассказывают о необыкновенной жизни и карьере Робина Уильямса. Зритель увидит, какой путь прошел комик: выступления в клубах, успех сериала «Морк и Минди», проблемы с алкоголем и наркотиками, смерть близкого друга, общемировая известность, премия «Оскар» и тяжелая депрессия. Лишь близкие знали, какая боль скрывалась за той маской, которую Уильямс надевал во время выступлений или на съемочной площадке. Продюсером «Загляни в мою душу» стал лауреат премии «Оскар» Алекс Гибни.
Рейтинг:
rating
Качество: DVBRip
Формат: AVI
Видео: XviD, 704x400 (16:9), 1477 kbps, 25 fps, 0,210 bpp
Аудио: AC3 / 5.1 / 48 kHz / 384 kbps /

Текст читали Юлия Яблонская и Илья Сланевский
General
Complete name : F:\Robin.Williams.Come.Inside.My.Mind.2018.DVBRip.R.G.Resident.avi
Format : AVI
Format/Info : Audio Video Interleave
File size : 1.46 GiB
Duration : 1 h 51 min
Overall bit rate : 1 871 kb/s
Writing application : VirtualDubModRus 1.5.10.2 (build 2542/release)
Writing library : VirtualDubMod build 2542/release

Video
ID : 0
Format : MPEG-4 Visual
Format profile : Advanced Simple@L5
Format settings, BVOP : 1
Format settings, QPel : No
Format settings, GMC : No warppoints
Format settings, Matrix : Custom
Codec ID : XVID
Codec ID/Hint : XviD
Duration : 1 h 51 min
Bit rate : 1 478 kb/s
Width : 704 pixels
Height : 400 pixels
Display aspect ratio : 16:9
Frame rate : 25.000 FPS
Color space : YUV
Chroma subsampling : 4:2:0
Bit depth : 8 bits
Scan type : Progressive
Compression mode : Lossy
Bits/(Pixel*Frame) : 0.210
Stream size : 1.15 GiB (79%)
Writing library : XviD 73

Audio
ID : 1
Format : AC-3
Format/Info : Audio Coding 3
Mode extension : CM (complete main)
Format settings, Endianness : Big
Codec ID : 2000
Duration : 1 h 51 min
Bit rate mode : Constant
Bit rate : 384 kb/s
Channel(s) : 6 channels
Channel positions : Front: L C R, Side: L R, LFE
Sampling rate : 48.0 kHz
Frame rate : 31.250 FPS (1536 spf)
Compression mode : Lossy
Stream size : 307 MiB (21%)
Alignment : Split accross interleaves
Interleave, duration : 40 ms (1.00 video frame)
Interleave, preload duration : 500 ms
pb.wtf



Скачать
Чтобы иметь возможность скачивать с Торрент Трекера, нужно Зарегистрироваться

Как скачивать  ·  Рейтинг и ограничения


>> Регистрируемся здесь <<






Отзывы и комментарии о схеме читаем и пишем здесь: ---> Отзывы и комментарии о схеме

Новые благодарочки в телеграм довольных пользователей:
скриншот   скриншот   скриншот   скриншот   скриншот
    Дорогой пользователь! Огромная просьба, поблагодарите релизера, оцените раздачу и оставьте свои комментарий, если Вы скачали Робин Уильямс: Загляни в мою душу через торрент бесплатно! Внесите свою лепту в развитие PiratBit!
    Комментировать посты могут только пользователи прошедшие не сложную регистрацию
    Показать сообщения:    

    Робин Уильямс: Загляни в мою душу через торрент
    Скачать бесплатно Робин Уильямс: Загляни в мою душу
    Робин Уильямс: Загляни в мою душу скачать торрент
    Робин Уильямс: Загляни в мою душу смотреть онлайн
    Cкачать фильм Робин Уильямс: Загляни в мою душу бесплатно
    Робин Уильямс: Загляни в мою душу скачать торрент в хорошем качестве
    Робин Уильямс: Загляни в мою душу смотреть онлайн бесплатно в хорошем качестве


    Вы не можете начинать темы
    Вы не можете отвечать на сообщения
    Вы не можете редактировать свои сообщения
    Вы не можете удалять свои сообщения
    Вы не можете голосовать в опросах
    Вы не можете прикреплять файлы к сообщениям
    Вы не можете скачивать файлы