Ссылка на приватное зеркало нашего сайта всего за 1$. Внимание количество ограничено!!!

2 сезон

iTunes

1 сезон

1

2 сезон

2 сезон

iTunes

1 сезон

RePack

30

Ultimate

ВАЖНО

ИГРА 18+

pack

RePack

MK11
pack

Забери бонус

RePack

jed

!!Акция!!

Alien_Rage

RePack

fifa19

RePack

Assassins Creed: Odyssey

RePack

NEED FOR SPEED™ PAYBACK

4 сезон

9 сезон

Бесстыжие 9 сезон

Все сериалы

все сериалы на PB.wtf

RePack

FAR CRY 5
  

Люк Кейдж / Luke Cage / Сезон: 2 / Серии: 1-13 из 13 (Энди Годдард, Марк Йобст, Кларк Джонсон) [2018, фантастика, боевик, UHD WEBRip 2160p] 2xMVO pb.wtf

Люк Кейдж через торрент pb.wtf

Размер: 136.72 GB | Добавлен: 2 года 4 мес. назад | Торрент скачан:4 раза
Скачать  

21-07-2018 13:57 Люк Кейдж Скачать торрент  

Люк Кейдж / Luke Cage

Год выпуска: 2018
Страна: США
Жанр: фантастика, боевик, триллер, драма, криминал
Продолжительность: 13 x ~ 00:50:00
Перевод: Профессиональный многоголосый
Субтитры: Русские, английские, болгарские, немецкие, греческие, испанские, финские, французские, итальянские, японские, корейские, норвежские, датские, польские, португальские, румынские, шведские, тайские
Режиссер: Энди Годдард , Марк Йобст , Кларк Джонсон
В ролях:

Майк Колтер (Luke Cage), Симон Миссик (Misty Knight), Тео Росси (Hernan «Shades» Alvarez), Элфри Вудард (Mariah Dillard), Джастин Суэйн (Detective Mark Bailey), Шон Рейнгголд (Sugar), Джон Кларенс Стюарт (Alex Wesley), Карен Питтман (Inspector Priscilla Ridley), Рон Сепас Джонс (Bobby Fish), Джереми Крафт (D.W. Griffith), Мустафа Жакир (John «Bushmaster» McIver), Розарио Доусон (Claire Temple)
Описание:
Получив суперсилу в результате сорванного эксперимента, ошибочно обвиненный мужчина сбегает из тюрьмы, чтобы стать наемным супергероем.
Рейтинг:

Качество: UHD WEBRip 2160p
Формат: MKV
Видео: HEVC, HDR, 27.9 Мбит/с, 3840x2160, 23.976 Кадр/с
Аудио #1: Русский / AC-3, 48.0 KHz, 5.1 ch, 384 Kbps / Профессиональный многоголосый закадровый | Jaskier
Аудио #2: Русский / AC-3, 48.0 KHz, 5.1 ch, 448 Kbps / Профессиональный многоголосый закадровый | AMS
Аудио #3: Английский / E-AC-3+Atmos, 48.0 KHz, 5.1 ch, 448 Kbps / Original
Реклама: Присутствует звуковая (два раза в начале и конце по 10 сек.)
Complete name : E:\Marvels.Luke.Cage.S02.2160p.NF.WEBRip.x265.10bit.HDR.DDP5.1.Atmos-SpaceHD13\Marvel's Luke Cage S02E01 Soul Brother #1 2160p HDR Netflix WEBRip DD+ Atmos 5.1 x265-SpaceHD13.mkv
Format : Matroska
Format version : Version 4 / Version 2
File size : 11.2 GiB
Duration : 55 min 29 s
Overall bit rate : 29.0 Mb/s
Movie name : Marvel's Luke Cage S02E01 Soul Brother #1 2160p HDR Netflix WEBRip DD+ Atmos 5.1 x265-SpaceHD13
Encoded date : UTC 2018-07-20 17:41:28
Writing application : mkvmerge v25.0.0 ('Prog Noir') 64-bit
Writing library : libebml v1.3.6 + libmatroska v1.4.9

Video
ID : 1
Format : HEVC
Format/Info : High Efficiency Video Coding
Commercial name : HDR10
Format profile : Main 10@L5@Main
Codec ID : V_MPEGH/ISO/HEVC
Duration : 55 min 8 s
Bit rate : 27.9 Mb/s
Width : 3 840 pixels
Height : 2 160 pixels
Display aspect ratio : 16:9
Frame rate mode : Constant
Frame rate : 23.976 (24000/1001) FPS
Color space : YUV
Chroma subsampling : 4:2:0
Bit depth : 10 bits
Bits/(Pixel*Frame) : 0.140
Stream size : 10.7 GiB (96%)
Title : Marvel's Luke Cage S02E01 Soul Brother #1 2160p HDR Netflix WEBRip DD+ Atmos 5.1 x265-SpaceHD13
Writing library : x265 2.8+15-d693a5aa5541:[Windows][MSVC 1914][64 bit] 10bit
Encoding settings : cpuid=1111039 / frame-threads=4 / numa-pools=0,28 / wpp / no-pmode / no-pme / no-psnr / no-ssim / log-level=2 / input-csp=1 / input-res=3840x2160 / interlace=0 / total-frames=0 / level-idc=0 / high-tier=1 / uhd-bd=0 / ref=5 / no-allow-non-conformance / repeat-headers / annexb / no-aud / no-hrd / info / hash=0 / no-temporal-layers / open-gop / min-keyint=23 / keyint=250 / gop-lookahead=0 / bframes=8 / b-adapt=2 / b-pyramid / bframe-bias=0 / rc-lookahead=40 / lookahead-slices=0 / scenecut=40 / radl=0 / no-intra-refresh / ctu=64 / min-cu-size=8 / rect / amp / max-tu-size=32 / tu-inter-depth=3 / tu-intra-depth=3 / limit-tu=4 / rdoq-level=2 / dynamic-rd=0.00 / no-ssim-rd / signhide / no-tskip / nr-intra=0 / nr-inter=0 / no-constrained-intra / no-strong-intra-smoothing / max-merge=4 / limit-refs=1 / limit-modes / me=3 / subme=4 / merange=57 / temporal-mvp / weightp / weightb / no-analyze-src-pics / deblock=0:0 / sao / no-sao-non-deblock / rd=6 / no-early-skip / rskip / no-fast-intra / no-tskip-fast / no-cu-lossless / b-intra / no-splitrd-skip / rdpenalty=0 / psy-rd=2.00 / psy-rdoq=1.00 / no-rd-refine / no-lossless / cbqpoffs=0 / crqpoffs=0 / rc=crf / crf=15.0 / qcomp=0.60 / qpstep=4 / stats-write=0 / stats-read=0 / ipratio=1.40 / pbratio=1.30 / aq-mode=1 / aq-strength=1.00 / cutree / zone-count=0 / no-strict-cbr / qg-size=32 / no-rc-grain / qpmax=69 / qpmin=0 / no-const-vbv / sar=0 / overscan=0 / videoformat=5 / range=0 / colorprim=9 / transfer=16 / colormatrix=9 / chromaloc=0 / display-window=0 / master-display=G(13250,34500)B(7500,3000)R(34000,16000)WP(15635,16450)L(40000000,50) / max-cll=10000,890 / min-luma=0 / max-luma=1023 / log2-max-poc-lsb=8 / vui-timing-info / vui-hrd-info / slices=1 / no-opt-qp-pps / no-opt-ref-list-length-pps / no-multi-pass-opt-rps / scenecut-bias=0.05 / no-opt-cu-delta-qp / no-aq-motion / hdr / hdr-opt / no-dhdr10-opt / no-idr-recovery-sei / analysis-reuse-level=5 / scale-factor=0 / refine-intra=0 / refine-inter=0 / refine-mv=0 / no-limit-sao / ctu-info=0 / no-lowpass-dct / refine-mv-type=0 / copy-pic=1 / max-ausize-factor=1.0 / no-dynamic-refine / no-single-sei
Default : Yes
Forced : No
Color range : Limited
Color primaries : BT.2020
Transfer characteristics : PQ
Matrix coefficients : BT.2020 non-constant
Mastering display color pri : Display P3
Mastering display luminance : min: 0.0050 cd/m2, max: 4000 cd/m2
Maximum Content Light Level : 10000 cd/m2
Maximum Frame-Average Light : 890 cd/m2

Audio #1
ID : 2
Format : AC-3
Format/Info : Audio Coding 3
Codec ID : A_AC3
Duration : 55 min 29 s
Bit rate mode : Constant
Bit rate : 384 kb/s
Channel(s) : 6 channels
Channel positions : Front: L C R, Side: L R, LFE
Sampling rate : 48.0 kHz
Frame rate : 31.250 FPS (1536 SPF)
Bit depth : 16 bits
Compression mode : Lossy
Stream size : 152 MiB (1%)
Title : Marvel's Luke Cage S02E01 Soul Brother #1 2160p HDR Netflix WEBRip DD+ Atmos 5.1 x265-SpaceHD13[ Jaskier]
Language : Russian
Service kind : Complete Main
Default : No
Forced : No

Audio #2
ID : 3
Format : AC-3
Format/Info : Audio Coding 3
Codec ID : A_AC3
Duration : 55 min 16 s
Bit rate mode : Constant
Bit rate : 448 kb/s
Channel(s) : 6 channels
Channel positions : Front: L C R, Side: L R, LFE
Sampling rate : 48.0 kHz
Frame rate : 31.250 FPS (1536 SPF)
Bit depth : 16 bits
Compression mode : Lossy
Stream size : 177 MiB (2%)
Title : Marvel's Luke Cage S02E01 Soul Brother #1 2160p HDR Netflix WEBRip DD+ Atmos 5.1 x265-SpaceHD13[AMS]
Language : Russian
Service kind : Complete Main
Default : No
Forced : No

Audio #3
ID : 4
Format : E-AC-3
Format/Info : Enhanced Audio Coding 3
Format profile : E-AC-3+Atmos / E-AC-3
Codec ID : A_EAC3
Duration : 55 min 16 s
Bit rate mode : Constant
Bit rate : 448 kb/s
Channel(s) : 15 objects / 6 channels
Channel positions : 15 objects / Front: L C R, Side: L R, LFE
Sampling rate : 48.0 kHz
Frame rate : 187.500 FPS (256 SPF)
Compression mode : Lossy
Stream size : 177 MiB (2%)
Title : Marvel's Luke Cage S02E01 Soul Brother #1 2160p HDR Netflix WEBRip DD+ Atmos 5.1 x265-SpaceHD13
Language : English
Service kind : Complete Main
Default : Yes
Forced : No

Text #1
ID : 5
Format : UTF-8
Codec ID : S_TEXT/UTF8
Codec ID/Info : UTF-8 Plain Text
Duration : 53 min 50 s
Bit rate : 62 b/s
Count of elements : 739
Stream size : 24.6 KiB (0%)
Title : SDH
Language : English
Default : No
Forced : No

Text #2
ID : 6
Format : UTF-8
Codec ID : S_TEXT/UTF8
Codec ID/Info : UTF-8 Plain Text
Duration : 52 min 9 s
Bit rate : 120 b/s
Count of elements : 669
Stream size : 46.0 KiB (0%)
Language : Bulgarian
Default : No
Forced : No

Text #3
ID : 7
Format : UTF-8
Codec ID : S_TEXT/UTF8
Codec ID/Info : UTF-8 Plain Text
Duration : 53 min 44 s
Bit rate : 67 b/s
Count of elements : 633
Stream size : 26.4 KiB (0%)
Language : German
Default : No
Forced : No

Text #4
ID : 8
Format : UTF-8
Codec ID : S_TEXT/UTF8
Codec ID/Info : UTF-8 Plain Text
Duration : 54 min 38 s
Bit rate : 90 b/s
Count of elements : 635
Stream size : 36.0 KiB (0%)
Language : Greek
Default : No
Forced : No

Text #5
ID : 9
Format : UTF-8
Codec ID : S_TEXT/UTF8
Codec ID/Info : UTF-8 Plain Text
Duration : 53 min 44 s
Bit rate : 52 b/s
Count of elements : 640
Stream size : 20.5 KiB (0%)
Language : Spanish
Default : No
Forced : No

Text #6
ID : 10
Format : UTF-8
Codec ID : S_TEXT/UTF8
Codec ID/Info : UTF-8 Plain Text
Duration : 53 min 46 s
Bit rate : 53 b/s
Count of elements : 643
Stream size : 21.0 KiB (0%)
Language : Spanish
Default : No
Forced : No

Text #7
ID : 11
Format : UTF-8
Codec ID : S_TEXT/UTF8
Codec ID/Info : UTF-8 Plain Text
Duration : 53 min 55 s
Bit rate : 48 b/s
Count of elements : 628
Stream size : 19.3 KiB (0%)
Language : Finnish
Default : No
Forced : No

Text #8
ID : 12
Format : UTF-8
Codec ID : S_TEXT/UTF8
Codec ID/Info : UTF-8 Plain Text
Duration : 53 min 44 s
Bit rate : 54 b/s
Count of elements : 634
Stream size : 21.4 KiB (0%)
Language : French
Default : No
Forced : No

Text #9
ID : 13
Format : UTF-8
Codec ID : S_TEXT/UTF8
Codec ID/Info : UTF-8 Plain Text
Duration : 54 min 38 s
Bit rate : 72 b/s
Count of elements : 647
Stream size : 29.1 KiB (0%)
Language : Hebrew
Default : No
Forced : No

Text #10
ID : 14
Format : UTF-8
Codec ID : S_TEXT/UTF8
Codec ID/Info : UTF-8 Plain Text
Duration : 53 min 46 s
Bit rate : 69 b/s
Count of elements : 635
Stream size : 27.5 KiB (0%)
Language : Italian
Default : No
Forced : No

Text #11
ID : 15
Format : UTF-8
Codec ID : S_TEXT/UTF8
Codec ID/Info : UTF-8 Plain Text
Duration : 54 min 39 s
Bit rate : 50 b/s
Count of elements : 663
Stream size : 20.1 KiB (0%)
Language : Japanese
Default : No
Forced : No

Text #12
ID : 16
Format : UTF-8
Codec ID : S_TEXT/UTF8
Codec ID/Info : UTF-8 Plain Text
Duration : 54 min 38 s
Bit rate : 59 b/s
Count of elements : 645
Stream size : 23.6 KiB (0%)
Language : Korean
Default : No
Forced : No

Text #13
ID : 17
Format : UTF-8
Codec ID : S_TEXT/UTF8
Codec ID/Info : UTF-8 Plain Text
Duration : 54 min 4 s
Bit rate : 49 b/s
Count of elements : 638
Stream size : 19.7 KiB (0%)
Language : Norwegian Bokmal
Default : No
Forced : No

Text #14
ID : 18
Format : UTF-8
Codec ID : S_TEXT/UTF8
Codec ID/Info : UTF-8 Plain Text
Duration : 53 min 55 s
Bit rate : 49 b/s
Count of elements : 611
Stream size : 19.5 KiB (0%)
Language : Dutch
Default : No
Forced : No

Text #15
ID : 19
Format : UTF-8
Codec ID : S_TEXT/UTF8
Codec ID/Info : UTF-8 Plain Text
Duration : 53 min 44 s
Bit rate : 49 b/s
Count of elements : 619
Stream size : 19.6 KiB (0%)
Language : Polish
Default : No
Forced : No

Text #16
ID : 20
Format : UTF-8
Codec ID : S_TEXT/UTF8
Codec ID/Info : UTF-8 Plain Text
Duration : 53 min 55 s
Bit rate : 52 b/s
Count of elements : 639
Stream size : 20.7 KiB (0%)
Language : Portuguese
Default : No
Forced : No

Text #17
ID : 21
Format : UTF-8
Codec ID : S_TEXT/UTF8
Codec ID/Info : UTF-8 Plain Text
Duration : 53 min 46 s
Bit rate : 66 b/s
Count of elements : 637
Stream size : 26.4 KiB (0%)
Title : Brazilian
Language : Portuguese
Default : No
Forced : No

Text #18
ID : 22
Format : UTF-8
Codec ID : S_TEXT/UTF8
Codec ID/Info : UTF-8 Plain Text
Duration : 53 min 55 s
Bit rate : 51 b/s
Count of elements : 632
Stream size : 20.3 KiB (0%)
Language : Romanian
Default : No
Forced : No

Text #19
ID : 23
Format : UTF-8
Codec ID : S_TEXT/UTF8
Codec ID/Info : UTF-8 Plain Text
Duration : 53 min 55 s
Bit rate : 51 b/s
Count of elements : 626
Stream size : 20.2 KiB (0%)
Language : Swedish
Default : No
Forced : No

Text #20
ID : 24
Format : UTF-8
Codec ID : S_TEXT/UTF8
Codec ID/Info : UTF-8 Plain Text
Duration : 54 min 38 s
Bit rate : 139 b/s
Count of elements : 647
Stream size : 55.9 KiB (0%)
Language : Thai
Default : No
Forced : No

Text #21
ID : 25
Format : UTF-8
Codec ID : S_TEXT/UTF8
Codec ID/Info : UTF-8 Plain Text
Duration : 53 min 46 s
Bit rate : 70 b/s
Count of elements : 645
Stream size : 28.0 KiB (0%)
Language : Turkish
Default : No
Forced : No

Text #22
ID : 26
Format : UTF-8
Codec ID : S_TEXT/UTF8
Codec ID/Info : UTF-8 Plain Text
Duration : 53 min 55 s
Bit rate : 69 b/s
Count of elements : 640
Stream size : 27.5 KiB (0%)
Language : Vietnamese
Default : No
Forced : No

Text #23
ID : 27
Format : UTF-8
Codec ID : S_TEXT/UTF8
Codec ID/Info : UTF-8 Plain Text
Duration : 54 min 38 s
Bit rate : 50 b/s
Count of elements : 647
Stream size : 20.4 KiB (0%)
Title : Simplified
Language : Chinese
Default : No
Forced : No

Text #24
ID : 28
Format : UTF-8
Codec ID : S_TEXT/UTF8
Codec ID/Info : UTF-8 Plain Text
Duration : 54 min 38 s
Bit rate : 49 b/s
Count of elements : 647
Stream size : 19.8 KiB (0%)
Title : Traditional
Language : Chinese
Default : No
Forced : No

Text #25
ID : 29
Format : UTF-8
Codec ID : S_TEXT/UTF8
Codec ID/Info : UTF-8 Plain Text
Duration : 53 min 51 s
Bit rate : 94 b/s
Count of elements : 662
Stream size : 37.2 KiB (0%)
Language : Russian
Default : Yes
Forced : Yes
pb.wtf



Скачать Люк Кейдж через торрент https://b.radikal.ru/b00/1807/f3/2a943137def2.png Скачать фильм Люк Кейдж через торрент бесплантно в хорошем качестве Описание: Получив суперсилу в результате сорванного эксперимента, ошибочно обвиненный мужчина сбегает из тюрьмы, чтобы стать наемным ... 10 10 1
Торрент: Зарегистрирован [2018-07-21 13:57] · скачан: 4 раз
Статус: √ проверено
Размер: 136.72 GB
Как cкачать? Как скачать Люк Кейдж через торрент | qTorrent

28-11-2019 20:33  

Отключить всю рекламу на сайте

    Дорогой пользователь! Огромная просьба, поблагодарите релизера, оцените раздачу и оставьте свои комментарий, если Вы скачали Люк Кейдж через торрент бесплатно! Внесите свою лепту в развитие PiratBit!
    Комментировать посты могут только пользователи прошедшие не сложную регистрацию
    Показать сообщения:    

    Люк Кейдж через торрент
    Скачать бесплатно Люк Кейдж
    Люк Кейдж скачать торрент
    Люк Кейдж смотреть онлайн
    Cкачать фильм Люк Кейдж бесплатно
    Люк Кейдж скачать торрент в хорошем качестве
    Люк Кейдж смотреть онлайн бесплатно в хорошем качестве


    Вы не можете начинать темы
    Вы не можете отвечать на сообщения
    Вы не можете редактировать свои сообщения
    Вы не можете удалять свои сообщения
    Вы не можете голосовать в опросах
    Вы не можете прикреплять файлы к сообщениям
    Вы можете скачивать файлы