Ссылка на приватное зеркало нашего сайта всего за 1$. Внимание количество ограничено!!!

2 сезон

iTunes

1 сезон

1

2 сезон

2 сезон

iTunes

1 сезон

RePack

30

Новинка

ВАЖНО

ИГРА 18+

pack

RePack

MK11
pack

Забери бонус

RePack

jed

!!Акция!!

Alien_Rage

RePack

fifa19

RePack

Assassins Creed: Odyssey

RePack

NEED FOR SPEED™ PAYBACK

4 сезон

9 сезон

Бесстыжие 9 сезон

Все сериалы

все сериалы на PB.wtf

RePack

FAR CRY 5
  

Ловкость / Sleight (Джастин Диллард) [2016, фантастика, боевик, триллер, Blu-ray EUR 1080p] MVO [Лицензия] pb.wtf

Ловкость через торрент pb.wtf

Размер: 24.33 GB | Добавлен: 2 года 4 мес. назад | Торрент скачан:8 раз
Скачать  

22-07-2018 17:41 Ловкость Скачать торрент  

Ловкость / Sleight

Год выпуска: 2016
Страна: США
Жанр: фантастика, боевик, триллер, драма
Продолжительность: 01:29:16
Перевод: Профессиональный многоголосый
Субтитры: Русские, английские, арабские, китайские, чешские, датские, голландские, эстонские, финские, французские, немецкие, греческие, венгерские, исландские, итальянские, корейские, латвийские, литовские, норвежские, португальские, испанские, шведские, тайские, турецкие, румынские, польские
Режиссер: Джастин Диллард
В ролях:

Джейкоб Латимор, Сейшелл Гэбриел, Сторм Рейд, Донзали Абернати (Mary), Сашир Замата, Джей Уокер (Blake), Эндрю Фицпатрик (Seth), Стелла Стал (Jane), Камерон Эспозито (Luna), Алекс Хайнер (Noah), Alex Theurer (Gallery Owner), Джэй Розенберг (Kyla)
Описание:
Молодой уличный фокусник вынужден взять на себя заботу о маленькой сестре после того, как их родители попытались незаконным путем сохранить крышу над головой. Малышку похищают и, чтобы спасти ее, парню придется использовать свою магию и блестящий ум.
Рейтинг:

MPAA: R - Лицам до 17 лет обязательно присутствие взрослого
Качество: Blu-ray EUR 1080p
Контейнер: BDMV
Видео: MPEG-4 AVC, 26917 Кбит/с, 1920x1080
Аудио: DTS-HD Master Audio English 5.1 / 48 kHz / 3316 kbps / 24-bit (DTS Core: 5.1 / 48 kHz / 1509 kbps / 24-bit)
Аудио: Dolby Digital Audio French 5.1 / 48 kHz / 640 kbps
Аудио: DTS-HD Master Audio German 5.1 / 48 kHz / 2718 kbps / 24-bit (DTS Core: 5.1 / 48 kHz / 1509 kbps / 24-bit)
Аудио: Dolby Digital Audio Russian 5.1 / 48 kHz / 640 kbps
Аудио: Dolby Digital Audio Spanish 5.1 / 48 kHz / 640 kbps
Disc Title: Sleight.Tricks.und.Drugs.und.Zauberei.2016.MULTi.COMPLETE.BLURAY-UNTOUCHED
Disc Size: 26 129 033 652 bytes
Protection: AACS
BD-Java: Yes
BDInfo: 0.5.8

Notes:

BDINFO HOME:
Cinema Squid
http://www.cinemasquid.com/blu-ray/tools/bdinfo

INCLUDES FORUMS REPORT FOR:
AVS Forum Blu-ray Audio and Video Specifications Thread
http://www.avsforum.com/avs-vb/showthread.php?t=1155731

********************
PLAYLIST: 00001.MPLS
********************

<--- BEGIN FORUMS PASTE --->

Total Video
Title Codec Length Movie Size Disc Size Bitrate Bitrate Main Audio Track Secondary Audio Track
----- ------ ------- -------------- -------------- ------- ------- ------------------ ---------------------
00001.MPLS AVC 1:29:16 25 433 985 792 26 129 033 652 37,99 26,92 DTS-HD Master 5.1 3316Kbps (48kHz/24-bit)

DISC INFO:

Disc Title: Sleight.Tricks.und.Drugs.und.Zauberei.2016.MULTi.COMPLETE.BLURAY-UNTOUCHED
Disc Size: 26 129 033 652 bytes
Protection: AACS
BD-Java: Yes
BDInfo: 0.5.8

PLAYLIST REPORT:

Name: 00001.MPLS
Length: 1:29:16.351 (h:m:s.ms)
Size: 25 433 985 792 bytes
Total Bitrate: 37,99 Mbps

VIDEO:

Codec Bitrate Description
----- ------- -----------
MPEG-4 AVC Video 26917 kbps 1080p / 23,976 fps / 16:9 / High Profile 4.1

AUDIO:

Codec Language Bitrate Description
----- -------- ------- -----------
DTS-HD Master Audio English 3316 kbps 5.1 / 48 kHz / 3316 kbps / 24-bit (DTS Core: 5.1 / 48 kHz / 1509 kbps / 24-bit)
Dolby Digital Audio French 640 kbps 5.1 / 48 kHz / 640 kbps
DTS-HD Master Audio German 2718 kbps 5.1 / 48 kHz / 2718 kbps / 24-bit (DTS Core: 5.1 / 48 kHz / 1509 kbps / 24-bit)
Dolby Digital Audio Russian 640 kbps 5.1 / 48 kHz / 640 kbps
Dolby Digital Audio Spanish 640 kbps 5.1 / 48 kHz / 640 kbps

SUBTITLES:

Codec Language Bitrate Description
----- -------- ------- -----------
Presentation Graphics English 28,179 kbps
Presentation Graphics English 34,614 kbps
Presentation Graphics English 28,185 kbps
Presentation Graphics English 34,621 kbps
Presentation Graphics Arabic 14,996 kbps
Presentation Graphics Chinese 22,275 kbps
Presentation Graphics Czech 23,424 kbps
Presentation Graphics Danish 25,803 kbps
Presentation Graphics Dutch 20,193 kbps
Presentation Graphics Estonian 26,532 kbps
Presentation Graphics Finnish 23,340 kbps
Presentation Graphics French 25,041 kbps
Presentation Graphics German 27,358 kbps
Presentation Graphics Greek 27,666 kbps
Presentation Graphics Hungarian 24,993 kbps
Presentation Graphics Icelandic 26,864 kbps
Presentation Graphics Italian 25,152 kbps
Presentation Graphics Korean 17,578 kbps
Presentation Graphics Latvian 23,312 kbps
Presentation Graphics Lithuanian 25,600 kbps
Presentation Graphics Norwegian 24,681 kbps
Presentation Graphics Portuguese 26,364 kbps
Presentation Graphics Portuguese 26,620 kbps
Presentation Graphics Russian 26,065 kbps
Presentation Graphics Spanish 25,806 kbps
Presentation Graphics Spanish 25,189 kbps
Presentation Graphics Swedish 25,345 kbps
Presentation Graphics Thai 23,151 kbps
Presentation Graphics Turkish 26,728 kbps
Presentation Graphics Romanian 24,372 kbps
Presentation Graphics Polish 23,751 kbps

FILES:

Name Time In Length Size Total Bitrate
---- ------- ------ ---- -------------
00001.M2TS 0:00:00.000 1:29:16.351 25 433 985 792 37 987

CHAPTERS:

Number Time In Length Avg Video Rate Max 1-Sec Rate Max 1-Sec Time Max 5-Sec Rate Max 5-Sec Time Max 10Sec Rate Max 10Sec Time Avg Frame Size Max Frame Size Max Frame Time
------ ------- ------ -------------- -------------- -------------- -------------- -------------- -------------- -------------- -------------- -------------- --------------
1 0:00:00.000 0:05:48.473 27 455 kbps 42 832 kbps 00:00:06.548 31 707 kbps 00:00:06.256 31 172 kbps 00:01:49.234 143 120 bytes 548 524 bytes 00:03:33.463
2 0:05:48.473 0:05:00.925 27 066 kbps 38 927 kbps 00:09:59.640 31 295 kbps 00:09:59.640 30 268 kbps 00:09:59.640 141 111 bytes 544 206 bytes 00:09:34.532
3 0:10:49.398 0:06:18.169 27 055 kbps 34 244 kbps 00:14:19.733 29 880 kbps 00:14:09.431 28 380 kbps 00:14:18.399 141 054 bytes 665 261 bytes 00:11:22.640
4 0:17:07.568 0:05:27.076 26 688 kbps 35 301 kbps 00:20:36.610 28 679 kbps 00:17:47.483 28 309 kbps 00:17:54.490 139 140 bytes 477 038 bytes 00:21:01.551
5 0:22:34.644 0:04:58.715 27 031 kbps 34 720 kbps 00:27:25.185 28 832 kbps 00:22:54.706 28 219 kbps 00:22:49.701 140 925 bytes 535 626 bytes 00:24:16.872
6 0:27:33.360 0:04:53.001 26 703 kbps 35 146 kbps 00:30:50.473 28 803 kbps 00:30:50.473 27 712 kbps 00:32:14.766 139 215 bytes 554 462 bytes 00:32:25.485
7 0:32:26.361 0:05:12.812 26 950 kbps 38 495 kbps 00:36:59.592 29 340 kbps 00:34:24.604 28 747 kbps 00:34:48.002 140 505 bytes 550 896 bytes 00:36:59.634
8 0:37:39.173 0:05:21.362 27 257 kbps 32 098 kbps 00:37:39.799 28 633 kbps 00:42:10.528 28 115 kbps 00:39:19.190 142 103 bytes 589 597 bytes 00:40:52.450
9 0:43:00.536 0:06:00.985 26 863 kbps 35 768 kbps 00:47:39.231 28 932 kbps 00:43:10.921 28 361 kbps 00:43:59.553 140 069 bytes 524 590 bytes 00:43:49.168
10 0:49:01.521 0:06:05.239 27 408 kbps 37 568 kbps 00:54:58.878 29 934 kbps 00:52:28.812 29 075 kbps 00:49:05.233 142 891 bytes 530 800 bytes 00:52:38.071
11 0:55:06.761 0:05:04.804 26 824 kbps 36 598 kbps 00:57:52.844 29 156 kbps 00:59:49.544 28 672 kbps 00:59:58.511 139 847 bytes 444 054 bytes 00:59:59.429
12 1:00:11.566 0:05:21.362 26 650 kbps 37 725 kbps 01:03:58.125 30 758 kbps 01:03:54.163 28 913 kbps 01:03:54.163 138 942 bytes 465 093 bytes 01:03:48.783
13 1:05:32.929 0:04:23.346 27 191 kbps 34 148 kbps 01:08:29.814 29 855 kbps 01:08:29.730 28 981 kbps 01:08:28.145 141 761 bytes 577 616 bytes 01:08:09.752
14 1:09:56.275 0:05:26.117 26 647 kbps 35 668 kbps 01:13:40.499 28 928 kbps 01:14:19.913 27 750 kbps 01:14:14.867 138 928 bytes 634 804 bytes 01:13:40.541
15 1:15:22.392 0:06:45.238 26 828 kbps 36 935 kbps 01:18:51.518 30 507 kbps 01:19:24.301 29 251 kbps 01:19:22.716 139 867 bytes 500 237 bytes 01:20:41.920
16 1:22:07.631 0:07:08.719 26 231 kbps 38 307 kbps 01:25:41.344 31 068 kbps 01:22:07.714 29 982 kbps 01:22:07.714 136 768 bytes 558 409 bytes 01:27:23.446

STREAM DIAGNOSTICS:

File PID Type Codec Language Seconds Bitrate Bytes Packets
---- --- ---- ----- -------- -------------- -------------- ------------- -----
00001.M2TS 4113 (0x1011) 0x1B AVC 5356,226 26 918 18 022 089 723 98 021 678
00001.M2TS 4352 (0x1100) 0x86 DTS-HD MA eng (English) 5356,226 3 316 2 220 382 200 12 899 904
00001.M2TS 4353 (0x1101) 0x81 AC3 fra (French) 5356,226 640 428 508 160 2 510 798
00001.M2TS 4354 (0x1102) 0x86 DTS-HD MA deu (German) 5356,226 2 718 1 819 608 708 10 719 469
00001.M2TS 4355 (0x1103) 0x81 AC3 rus (Russian) 5356,226 640 428 508 160 2 510 798
00001.M2TS 4356 (0x1104) 0x81 AC3 spa (Spanish) 5356,226 640 428 508 160 2 510 797
00001.M2TS 4608 (0x1200) 0x90 PGS eng (English) 5356,226 28 18 867 390 109 060
00001.M2TS 4609 (0x1201) 0x90 PGS eng (English) 5356,226 35 23 175 298 133 995
00001.M2TS 4610 (0x1202) 0x90 PGS eng (English) 5356,226 28 18 870 818 109 078
00001.M2TS 4611 (0x1203) 0x90 PGS eng (English) 5356,226 35 23 180 340 134 023
00001.M2TS 4612 (0x1204) 0x90 PGS ara (Arabic) 5356,226 15 10 040 181 61 096
00001.M2TS 4613 (0x1205) 0x90 PGS zho (Chinese) 5356,226 22 14 914 136 87 648
00001.M2TS 4614 (0x1206) 0x90 PGS ces (Czech) 5356,226 23 15 683 174 91 805
00001.M2TS 4615 (0x1207) 0x90 PGS dan (Danish) 5356,226 26 17 276 315 100 461
00001.M2TS 4616 (0x1208) 0x90 PGS nld (Dutch) 5356,226 20 13 520 348 79 951
00001.M2TS 4617 (0x1209) 0x90 PGS est (Estonian) 5356,226 27 17 764 228 103 104
00001.M2TS 4618 (0x120A) 0x90 PGS fin (Finnish) 5356,226 23 15 626 905 91 498
00001.M2TS 4619 (0x120B) 0x90 PGS fra (French) 5356,226 25 16 765 800 97 674
00001.M2TS 4620 (0x120C) 0x90 PGS deu (German) 5356,226 27 18 317 513 106 111
00001.M2TS 4621 (0x120D) 0x90 PGS ell (Greek) 5356,226 28 18 523 371 107 324
00001.M2TS 4622 (0x120E) 0x90 PGS hun (Hungarian) 5356,226 25 16 733 641 97 551
00001.M2TS 4623 (0x120F) 0x90 PGS isl (Icelandic) 5356,226 27 17 986 537 104 311
00001.M2TS 4624 (0x1210) 0x90 PGS ita (Italian) 5356,226 25 16 840 138 98 089
00001.M2TS 4625 (0x1211) 0x90 PGS kor (Korean) 5356,226 18 11 769 454 70 517
00001.M2TS 4626 (0x1212) 0x90 PGS lav (Latvian) 5356,226 23 15 608 331 91 442
00001.M2TS 4627 (0x1213) 0x90 PGS lit (Lithuanian) 5356,226 26 17 140 431 99 749
00001.M2TS 4628 (0x1214) 0x90 PGS nor (Norwegian) 5356,226 25 16 524 712 96 351
00001.M2TS 4629 (0x1215) 0x90 PGS por (Portuguese) 5356,226 26 17 652 153 102 502
00001.M2TS 4630 (0x1216) 0x90 PGS por (Portuguese) 5356,226 27 17 823 134 103 422
00001.M2TS 4631 (0x1217) 0x90 PGS rus (Russian) 5356,226 26 17 451 821 101 496
00001.M2TS 4632 (0x1218) 0x90 PGS spa (Spanish) 5356,226 26 17 278 349 100 476
00001.M2TS 4633 (0x1219) 0x90 PGS spa (Spanish) 5356,226 25 16 865 148 98 258
00001.M2TS 4634 (0x121A) 0x90 PGS swe (Swedish) 5356,226 25 16 969 619 98 773
00001.M2TS 4635 (0x121B) 0x90 PGS tha (Thai) 5356,226 23 15 500 865 90 917
00001.M2TS 4636 (0x121C) 0x90 PGS tur (Turkish) 5356,226 27 17 895 652 103 828
00001.M2TS 4637 (0x121D) 0x90 PGS ron (Romanian) 5356,226 24 16 318 394 95 263
00001.M2TS 4638 (0x121E) 0x90 PGS pol (Polish) 5356,226 24 15 902 057 92 984

<---- END FORUMS PASTE ---->

QUICK SUMMARY:

Disc Title: Sleight.Tricks.und.Drugs.und.Zauberei.2016.MULTi.COMPLETE.BLURAY-UNTOUCHED
Disc Size: 26 129 033 652 bytes
Protection: AACS
BD-Java: Yes
Playlist: 00001.MPLS
Size: 25 433 985 792 bytes
Length: 1:29:16.351
Total Bitrate: 37,99 Mbps
Video: MPEG-4 AVC Video / 26917 kbps / 1080p / 23,976 fps / 16:9 / High Profile 4.1
Audio: English / DTS-HD Master Audio / 5.1 / 48 kHz / 3316 kbps / 24-bit (DTS Core: 5.1 / 48 kHz / 1509 kbps / 24-bit)
Audio: French / Dolby Digital Audio / 5.1 / 48 kHz / 640 kbps
Audio: German / DTS-HD Master Audio / 5.1 / 48 kHz / 2718 kbps / 24-bit (DTS Core: 5.1 / 48 kHz / 1509 kbps / 24-bit)
Audio: Russian / Dolby Digital Audio / 5.1 / 48 kHz / 640 kbps
Audio: Spanish / Dolby Digital Audio / 5.1 / 48 kHz / 640 kbps
Subtitle: English / 28,179 kbps
Subtitle: English / 34,614 kbps
Subtitle: English / 28,185 kbps
Subtitle: English / 34,621 kbps
Subtitle: Arabic / 14,996 kbps
Subtitle: Chinese / 22,275 kbps
Subtitle: Czech / 23,424 kbps
Subtitle: Danish / 25,803 kbps
Subtitle: Dutch / 20,193 kbps
Subtitle: Estonian / 26,532 kbps
Subtitle: Finnish / 23,340 kbps
Subtitle: French / 25,041 kbps
Subtitle: German / 27,358 kbps
Subtitle: Greek / 27,666 kbps
Subtitle: Hungarian / 24,993 kbps
Subtitle: Icelandic / 26,864 kbps
Subtitle: Italian / 25,152 kbps
Subtitle: Korean / 17,578 kbps
Subtitle: Latvian / 23,312 kbps
Subtitle: Lithuanian / 25,600 kbps
Subtitle: Norwegian / 24,681 kbps
Subtitle: Portuguese / 26,364 kbps
Subtitle: Portuguese / 26,620 kbps
Subtitle: Russian / 26,065 kbps
Subtitle: Spanish / 25,806 kbps
Subtitle: Spanish / 25,189 kbps
Subtitle: Swedish / 25,345 kbps
Subtitle: Thai / 23,151 kbps
Subtitle: Turkish / 26,728 kbps
Subtitle: Romanian / 24,372 kbps
Subtitle: Polish / 23,751 kbps

********************
PLAYLIST: 00334.MPLS
********************

<--- BEGIN FORUMS PASTE --->

Total Video
Title Codec Length Movie Size Disc Size Bitrate Bitrate Main Audio Track Secondary Audio Track
----- ------ ------- -------------- -------------- ------- ------- ------------------ ---------------------
00334.MPLS AVC 1:29:16 25 433 985 792 26 129 033 652 37,99 26,92 DTS-HD Master 5.1 3316Kbps (48kHz/24-bit)

DISC INFO:

Disc Title: Sleight.Tricks.und.Drugs.und.Zauberei.2016.MULTi.COMPLETE.BLURAY-UNTOUCHED
Disc Size: 26 129 033 652 bytes
Protection: AACS
BD-Java: Yes
BDInfo: 0.5.8

PLAYLIST REPORT:

Name: 00334.MPLS
Length: 1:29:16.351 (h:m:s.ms)
Size: 25 433 985 792 bytes
Total Bitrate: 37,99 Mbps

(*) Indicates included stream hidden by this playlist.

VIDEO:

Codec Bitrate Description
----- ------- -----------
MPEG-4 AVC Video 26917 kbps 1080p / 23,976 fps / 16:9 / High Profile 4.1

AUDIO:

Codec Language Bitrate Description
----- -------- ------- -----------
DTS-HD Master Audio English 3316 kbps 5.1 / 48 kHz / 3316 kbps / 24-bit (DTS Core: 5.1 / 48 kHz / 1509 kbps / 24-bit)
Dolby Digital Audio French 640 kbps 5.1 / 48 kHz / 640 kbps
DTS-HD Master Audio German 2718 kbps 5.1 / 48 kHz / 2718 kbps / 24-bit (DTS Core: 5.1 / 48 kHz / 1509 kbps / 24-bit)
Dolby Digital Audio Russian 640 kbps 5.1 / 48 kHz / 640 kbps
Dolby Digital Audio Spanish 640 kbps 5.1 / 48 kHz / 640 kbps

SUBTITLES:

Codec Language Bitrate Description
----- -------- ------- -----------
Presentation Graphics English 28,179 kbps
Presentation Graphics English 34,614 kbps
* Presentation Graphics English 28,185 kbps
* Presentation Graphics English 34,621 kbps
Presentation Graphics Arabic 14,996 kbps
Presentation Graphics Chinese 22,275 kbps
Presentation Graphics Czech 23,424 kbps
Presentation Graphics Danish 25,803 kbps
Presentation Graphics Dutch 20,193 kbps
Presentation Graphics Estonian 26,532 kbps
Presentation Graphics Finnish 23,340 kbps
Presentation Graphics French 25,041 kbps
Presentation Graphics German 27,358 kbps
Presentation Graphics Greek 27,666 kbps
Presentation Graphics Hungarian 24,993 kbps
Presentation Graphics Icelandic 26,864 kbps
Presentation Graphics Italian 25,152 kbps
Presentation Graphics Korean 17,578 kbps
Presentation Graphics Latvian 23,312 kbps
Presentation Graphics Lithuanian 25,600 kbps
Presentation Graphics Norwegian 24,681 kbps
Presentation Graphics Portuguese 26,364 kbps
Presentation Graphics Portuguese 26,620 kbps
Presentation Graphics Russian 26,065 kbps
Presentation Graphics Spanish 25,806 kbps
Presentation Graphics Spanish 25,189 kbps
Presentation Graphics Swedish 25,345 kbps
Presentation Graphics Thai 23,151 kbps
Presentation Graphics Turkish 26,728 kbps
Presentation Graphics Romanian 24,372 kbps
Presentation Graphics Polish 23,751 kbps

FILES:

Name Time In Length Size Total Bitrate
---- ------- ------ ---- -------------
00001.M2TS 0:00:00.000 1:29:16.351 25 433 985 792 37 987

CHAPTERS:

Number Time In Length Avg Video Rate Max 1-Sec Rate Max 1-Sec Time Max 5-Sec Rate Max 5-Sec Time Max 10Sec Rate Max 10Sec Time Avg Frame Size Max Frame Size Max Frame Time
------ ------- ------ -------------- -------------- -------------- -------------- -------------- -------------- -------------- -------------- -------------- --------------
1 0:00:00.000 0:05:48.473 27 455 kbps 42 832 kbps 00:00:06.548 31 707 kbps 00:00:06.256 31 172 kbps 00:01:49.234 143 120 bytes 548 524 bytes 00:03:33.463
2 0:05:48.473 0:05:00.925 27 066 kbps 38 927 kbps 00:09:59.640 31 295 kbps 00:09:59.640 30 268 kbps 00:09:59.640 141 111 bytes 544 206 bytes 00:09:34.532
3 0:10:49.398 0:06:18.169 27 055 kbps 34 244 kbps 00:14:19.733 29 880 kbps 00:14:09.431 28 380 kbps 00:14:18.399 141 054 bytes 665 261 bytes 00:11:22.640
4 0:17:07.568 0:05:27.076 26 688 kbps 35 301 kbps 00:20:36.610 28 679 kbps 00:17:47.483 28 309 kbps 00:17:54.490 139 140 bytes 477 038 bytes 00:21:01.551
5 0:22:34.644 0:04:58.715 27 031 kbps 34 720 kbps 00:27:25.185 28 832 kbps 00:22:54.706 28 219 kbps 00:22:49.701 140 925 bytes 535 626 bytes 00:24:16.872
6 0:27:33.360 0:04:53.001 26 703 kbps 35 146 kbps 00:30:50.473 28 803 kbps 00:30:50.473 27 712 kbps 00:32:14.766 139 215 bytes 554 462 bytes 00:32:25.485
7 0:32:26.361 0:05:12.812 26 950 kbps 38 495 kbps 00:36:59.592 29 340 kbps 00:34:24.604 28 747 kbps 00:34:48.002 140 505 bytes 550 896 bytes 00:36:59.634
8 0:37:39.173 0:05:21.362 27 257 kbps 32 098 kbps 00:37:39.799 28 633 kbps 00:42:10.528 28 115 kbps 00:39:19.190 142 103 bytes 589 597 bytes 00:40:52.450
9 0:43:00.536 0:06:00.985 26 863 kbps 35 768 kbps 00:47:39.231 28 932 kbps 00:43:10.921 28 361 kbps 00:43:59.553 140 069 bytes 524 590 bytes 00:43:49.168
10 0:49:01.521 0:06:05.239 27 408 kbps 37 568 kbps 00:54:58.878 29 934 kbps 00:52:28.812 29 075 kbps 00:49:05.233 142 891 bytes 530 800 bytes 00:52:38.071
11 0:55:06.761 0:05:04.804 26 824 kbps 36 598 kbps 00:57:52.844 29 156 kbps 00:59:49.544 28 672 kbps 00:59:58.511 139 847 bytes 444 054 bytes 00:59:59.429
12 1:00:11.566 0:05:21.362 26 650 kbps 37 725 kbps 01:03:58.125 30 758 kbps 01:03:54.163 28 913 kbps 01:03:54.163 138 942 bytes 465 093 bytes 01:03:48.783
13 1:05:32.929 0:04:23.346 27 191 kbps 34 148 kbps 01:08:29.814 29 855 kbps 01:08:29.730 28 981 kbps 01:08:28.145 141 761 bytes 577 616 bytes 01:08:09.752
14 1:09:56.275 0:05:26.117 26 647 kbps 35 668 kbps 01:13:40.499 28 928 kbps 01:14:19.913 27 750 kbps 01:14:14.867 138 928 bytes 634 804 bytes 01:13:40.541
15 1:15:22.392 0:06:45.238 26 828 kbps 36 935 kbps 01:18:51.518 30 507 kbps 01:19:24.301 29 251 kbps 01:19:22.716 139 867 bytes 500 237 bytes 01:20:41.920
16 1:22:07.631 0:07:08.719 26 231 kbps 38 307 kbps 01:25:41.344 31 068 kbps 01:22:07.714 29 982 kbps 01:22:07.714 136 768 bytes 558 409 bytes 01:27:23.446

STREAM DIAGNOSTICS:

File PID Type Codec Language Seconds Bitrate Bytes Packets
---- --- ---- ----- -------- -------------- -------------- ------------- -----
00001.M2TS 4113 (0x1011) 0x1B AVC 5356,226 26 918 18 022 089 723 98 021 678
00001.M2TS 4352 (0x1100) 0x86 DTS-HD MA eng (English) 5356,226 3 316 2 220 382 200 12 899 904
00001.M2TS 4353 (0x1101) 0x81 AC3 fra (French) 5356,226 640 428 508 160 2 510 798
00001.M2TS 4354 (0x1102) 0x86 DTS-HD MA deu (German) 5356,226 2 718 1 819 608 708 10 719 469
00001.M2TS 4355 (0x1103) 0x81 AC3 rus (Russian) 5356,226 640 428 508 160 2 510 798
00001.M2TS 4356 (0x1104) 0x81 AC3 spa (Spanish) 5356,226 640 428 508 160 2 510 797
00001.M2TS 4608 (0x1200) 0x90 PGS eng (English) 5356,226 28 18 867 390 109 060
00001.M2TS 4609 (0x1201) 0x90 PGS eng (English) 5356,226 35 23 175 298 133 995
00001.M2TS 4610 (0x1202) 0x90 PGS eng (English) 5356,226 28 18 870 818 109 078
00001.M2TS 4611 (0x1203) 0x90 PGS eng (English) 5356,226 35 23 180 340 134 023
00001.M2TS 4612 (0x1204) 0x90 PGS ara (Arabic) 5356,226 15 10 040 181 61 096
00001.M2TS 4613 (0x1205) 0x90 PGS zho (Chinese) 5356,226 22 14 914 136 87 648
00001.M2TS 4614 (0x1206) 0x90 PGS ces (Czech) 5356,226 23 15 683 174 91 805
00001.M2TS 4615 (0x1207) 0x90 PGS dan (Danish) 5356,226 26 17 276 315 100 461
00001.M2TS 4616 (0x1208) 0x90 PGS nld (Dutch) 5356,226 20 13 520 348 79 951
00001.M2TS 4617 (0x1209) 0x90 PGS est (Estonian) 5356,226 27 17 764 228 103 104
00001.M2TS 4618 (0x120A) 0x90 PGS fin (Finnish) 5356,226 23 15 626 905 91 498
00001.M2TS 4619 (0x120B) 0x90 PGS fra (French) 5356,226 25 16 765 800 97 674
00001.M2TS 4620 (0x120C) 0x90 PGS deu (German) 5356,226 27 18 317 513 106 111
00001.M2TS 4621 (0x120D) 0x90 PGS ell (Greek) 5356,226 28 18 523 371 107 324
00001.M2TS 4622 (0x120E) 0x90 PGS hun (Hungarian) 5356,226 25 16 733 641 97 551
00001.M2TS 4623 (0x120F) 0x90 PGS isl (Icelandic) 5356,226 27 17 986 537 104 311
00001.M2TS 4624 (0x1210) 0x90 PGS ita (Italian) 5356,226 25 16 840 138 98 089
00001.M2TS 4625 (0x1211) 0x90 PGS kor (Korean) 5356,226 18 11 769 454 70 517
00001.M2TS 4626 (0x1212) 0x90 PGS lav (Latvian) 5356,226 23 15 608 331 91 442
00001.M2TS 4627 (0x1213) 0x90 PGS lit (Lithuanian) 5356,226 26 17 140 431 99 749
00001.M2TS 4628 (0x1214) 0x90 PGS nor (Norwegian) 5356,226 25 16 524 712 96 351
00001.M2TS 4629 (0x1215) 0x90 PGS por (Portuguese) 5356,226 26 17 652 153 102 502
00001.M2TS 4630 (0x1216) 0x90 PGS por (Portuguese) 5356,226 27 17 823 134 103 422
00001.M2TS 4631 (0x1217) 0x90 PGS rus (Russian) 5356,226 26 17 451 821 101 496
00001.M2TS 4632 (0x1218) 0x90 PGS spa (Spanish) 5356,226 26 17 278 349 100 476
00001.M2TS 4633 (0x1219) 0x90 PGS spa (Spanish) 5356,226 25 16 865 148 98 258
00001.M2TS 4634 (0x121A) 0x90 PGS swe (Swedish) 5356,226 25 16 969 619 98 773
00001.M2TS 4635 (0x121B) 0x90 PGS tha (Thai) 5356,226 23 15 500 865 90 917
00001.M2TS 4636 (0x121C) 0x90 PGS tur (Turkish) 5356,226 27 17 895 652 103 828
00001.M2TS 4637 (0x121D) 0x90 PGS ron (Romanian) 5356,226 24 16 318 394 95 263
00001.M2TS 4638 (0x121E) 0x90 PGS pol (Polish) 5356,226 24 15 902 057 92 984

<---- END FORUMS PASTE ---->

QUICK SUMMARY:

Disc Title: Sleight.Tricks.und.Drugs.und.Zauberei.2016.MULTi.COMPLETE.BLURAY-UNTOUCHED
Disc Size: 26 129 033 652 bytes
Protection: AACS
BD-Java: Yes
Playlist: 00334.MPLS
Size: 25 433 985 792 bytes
Length: 1:29:16.351
Total Bitrate: 37,99 Mbps
Video: MPEG-4 AVC Video / 26917 kbps / 1080p / 23,976 fps / 16:9 / High Profile 4.1
Audio: English / DTS-HD Master Audio / 5.1 / 48 kHz / 3316 kbps / 24-bit (DTS Core: 5.1 / 48 kHz / 1509 kbps / 24-bit)
Audio: French / Dolby Digital Audio / 5.1 / 48 kHz / 640 kbps
Audio: German / DTS-HD Master Audio / 5.1 / 48 kHz / 2718 kbps / 24-bit (DTS Core: 5.1 / 48 kHz / 1509 kbps / 24-bit)
Audio: Russian / Dolby Digital Audio / 5.1 / 48 kHz / 640 kbps
Audio: Spanish / Dolby Digital Audio / 5.1 / 48 kHz / 640 kbps
Subtitle: English / 28,179 kbps
Subtitle: English / 34,614 kbps
* Subtitle: English / 28,185 kbps
* Subtitle: English / 34,621 kbps
Subtitle: Arabic / 14,996 kbps
Subtitle: Chinese / 22,275 kbps
Subtitle: Czech / 23,424 kbps
Subtitle: Danish / 25,803 kbps
Subtitle: Dutch / 20,193 kbps
Subtitle: Estonian / 26,532 kbps
Subtitle: Finnish / 23,340 kbps
Subtitle: French / 25,041 kbps
Subtitle: German / 27,358 kbps
Subtitle: Greek / 27,666 kbps
Subtitle: Hungarian / 24,993 kbps
Subtitle: Icelandic / 26,864 kbps
Subtitle: Italian / 25,152 kbps
Subtitle: Korean / 17,578 kbps
Subtitle: Latvian / 23,312 kbps
Subtitle: Lithuanian / 25,600 kbps
Subtitle: Norwegian / 24,681 kbps
Subtitle: Portuguese / 26,364 kbps
Subtitle: Portuguese / 26,620 kbps
Subtitle: Russian / 26,065 kbps
Subtitle: Spanish / 25,806 kbps
Subtitle: Spanish / 25,189 kbps
Subtitle: Swedish / 25,345 kbps
Subtitle: Thai / 23,151 kbps
Subtitle: Turkish / 26,728 kbps
Subtitle: Romanian / 24,372 kbps
Subtitle: Polish / 23,751 kbps

********************
PLAYLIST: 00335.MPLS
********************

<--- BEGIN FORUMS PASTE --->

Total Video
Title Codec Length Movie Size Disc Size Bitrate Bitrate Main Audio Track Secondary Audio Track
----- ------ ------- -------------- -------------- ------- ------- ------------------ ---------------------
00335.MPLS AVC 1:29:16 25 433 985 792 26 129 033 652 37,99 26,92 DTS-HD Master 5.1 3316Kbps (48kHz/24-bit)

DISC INFO:

Disc Title: Sleight.Tricks.und.Drugs.und.Zauberei.2016.MULTi.COMPLETE.BLURAY-UNTOUCHED
Disc Size: 26 129 033 652 bytes
Protection: AACS
BD-Java: Yes
BDInfo: 0.5.8

PLAYLIST REPORT:

Name: 00335.MPLS
Length: 1:29:16.351 (h:m:s.ms)
Size: 25 433 985 792 bytes
Total Bitrate: 37,99 Mbps

(*) Indicates included stream hidden by this playlist.

VIDEO:

Codec Bitrate Description
----- ------- -----------
MPEG-4 AVC Video 26917 kbps 1080p / 23,976 fps / 16:9 / High Profile 4.1

AUDIO:

Codec Language Bitrate Description
----- -------- ------- -----------
DTS-HD Master Audio English 3316 kbps 5.1 / 48 kHz / 3316 kbps / 24-bit (DTS Core: 5.1 / 48 kHz / 1509 kbps / 24-bit)
Dolby Digital Audio French 640 kbps 5.1 / 48 kHz / 640 kbps
DTS-HD Master Audio German 2718 kbps 5.1 / 48 kHz / 2718 kbps / 24-bit (DTS Core: 5.1 / 48 kHz / 1509 kbps / 24-bit)
Dolby Digital Audio Russian 640 kbps 5.1 / 48 kHz / 640 kbps
Dolby Digital Audio Spanish 640 kbps 5.1 / 48 kHz / 640 kbps

SUBTITLES:

Codec Language Bitrate Description
----- -------- ------- -----------
* Presentation Graphics English 28,179 kbps
* Presentation Graphics English 34,614 kbps
Presentation Graphics English 28,185 kbps
Presentation Graphics English 34,621 kbps
Presentation Graphics Arabic 14,996 kbps
Presentation Graphics Chinese 22,275 kbps
Presentation Graphics Czech 23,424 kbps
Presentation Graphics Danish 25,803 kbps
Presentation Graphics Dutch 20,193 kbps
Presentation Graphics Estonian 26,532 kbps
Presentation Graphics Finnish 23,340 kbps
Presentation Graphics French 25,041 kbps
Presentation Graphics German 27,358 kbps
Presentation Graphics Greek 27,666 kbps
Presentation Graphics Hungarian 24,993 kbps
Presentation Graphics Icelandic 26,864 kbps
Presentation Graphics Italian 25,152 kbps
Presentation Graphics Korean 17,578 kbps
Presentation Graphics Latvian 23,312 kbps
Presentation Graphics Lithuanian 25,600 kbps
Presentation Graphics Norwegian 24,681 kbps
Presentation Graphics Portuguese 26,364 kbps
Presentation Graphics Portuguese 26,620 kbps
Presentation Graphics Russian 26,065 kbps
Presentation Graphics Spanish 25,806 kbps
Presentation Graphics Spanish 25,189 kbps
Presentation Graphics Swedish 25,345 kbps
Presentation Graphics Thai 23,151 kbps
Presentation Graphics Turkish 26,728 kbps
Presentation Graphics Romanian 24,372 kbps
Presentation Graphics Polish 23,751 kbps

FILES:

Name Time In Length Size Total Bitrate
---- ------- ------ ---- -------------
00001.M2TS 0:00:00.000 1:29:16.351 25 433 985 792 37 987

CHAPTERS:

Number Time In Length Avg Video Rate Max 1-Sec Rate Max 1-Sec Time Max 5-Sec Rate Max 5-Sec Time Max 10Sec Rate Max 10Sec Time Avg Frame Size Max Frame Size Max Frame Time
------ ------- ------ -------------- -------------- -------------- -------------- -------------- -------------- -------------- -------------- -------------- --------------
1 0:00:00.000 0:05:48.473 27 455 kbps 42 832 kbps 00:00:06.548 31 707 kbps 00:00:06.256 31 172 kbps 00:01:49.234 143 120 bytes 548 524 bytes 00:03:33.463
2 0:05:48.473 0:05:00.925 27 066 kbps 38 927 kbps 00:09:59.640 31 295 kbps 00:09:59.640 30 268 kbps 00:09:59.640 141 111 bytes 544 206 bytes 00:09:34.532
3 0:10:49.398 0:06:18.169 27 055 kbps 34 244 kbps 00:14:19.733 29 880 kbps 00:14:09.431 28 380 kbps 00:14:18.399 141 054 bytes 665 261 bytes 00:11:22.640
4 0:17:07.568 0:05:27.076 26 688 kbps 35 301 kbps 00:20:36.610 28 679 kbps 00:17:47.483 28 309 kbps 00:17:54.490 139 140 bytes 477 038 bytes 00:21:01.551
5 0:22:34.644 0:04:58.715 27 031 kbps 34 720 kbps 00:27:25.185 28 832 kbps 00:22:54.706 28 219 kbps 00:22:49.701 140 925 bytes 535 626 bytes 00:24:16.872
6 0:27:33.360 0:04:53.001 26 703 kbps 35 146 kbps 00:30:50.473 28 803 kbps 00:30:50.473 27 712 kbps 00:32:14.766 139 215 bytes 554 462 bytes 00:32:25.485
7 0:32:26.361 0:05:12.812 26 950 kbps 38 495 kbps 00:36:59.592 29 340 kbps 00:34:24.604 28 747 kbps 00:34:48.002 140 505 bytes 550 896 bytes 00:36:59.634
8 0:37:39.173 0:05:21.362 27 257 kbps 32 098 kbps 00:37:39.799 28 633 kbps 00:42:10.528 28 115 kbps 00:39:19.190 142 103 bytes 589 597 bytes 00:40:52.450
9 0:43:00.536 0:06:00.985 26 863 kbps 35 768 kbps 00:47:39.231 28 932 kbps 00:43:10.921 28 361 kbps 00:43:59.553 140 069 bytes 524 590 bytes 00:43:49.168
10 0:49:01.521 0:06:05.239 27 408 kbps 37 568 kbps 00:54:58.878 29 934 kbps 00:52:28.812 29 075 kbps 00:49:05.233 142 891 bytes 530 800 bytes 00:52:38.071
11 0:55:06.761 0:05:04.804 26 824 kbps 36 598 kbps 00:57:52.844 29 156 kbps 00:59:49.544 28 672 kbps 00:59:58.511 139 847 bytes 444 054 bytes 00:59:59.429
12 1:00:11.566 0:05:21.362 26 650 kbps 37 725 kbps 01:03:58.125 30 758 kbps 01:03:54.163 28 913 kbps 01:03:54.163 138 942 bytes 465 093 bytes 01:03:48.783
13 1:05:32.929 0:04:23.346 27 191 kbps 34 148 kbps 01:08:29.814 29 855 kbps 01:08:29.730 28 981 kbps 01:08:28.145 141 761 bytes 577 616 bytes 01:08:09.752
14 1:09:56.275 0:05:26.117 26 647 kbps 35 668 kbps 01:13:40.499 28 928 kbps 01:14:19.913 27 750 kbps 01:14:14.867 138 928 bytes 634 804 bytes 01:13:40.541
15 1:15:22.392 0:06:45.238 26 828 kbps 36 935 kbps 01:18:51.518 30 507 kbps 01:19:24.301 29 251 kbps 01:19:22.716 139 867 bytes 500 237 bytes 01:20:41.920
16 1:22:07.631 0:07:08.719 26 231 kbps 38 307 kbps 01:25:41.344 31 068 kbps 01:22:07.714 29 982 kbps 01:22:07.714 136 768 bytes 558 409 bytes 01:27:23.446

STREAM DIAGNOSTICS:

File PID Type Codec Language Seconds Bitrate Bytes Packets
---- --- ---- ----- -------- -------------- -------------- ------------- -----
00001.M2TS 4113 (0x1011) 0x1B AVC 5356,226 26 918 18 022 089 723 98 021 678
00001.M2TS 4352 (0x1100) 0x86 DTS-HD MA eng (English) 5356,226 3 316 2 220 382 200 12 899 904
00001.M2TS 4353 (0x1101) 0x81 AC3 fra (French) 5356,226 640 428 508 160 2 510 798
00001.M2TS 4354 (0x1102) 0x86 DTS-HD MA deu (German) 5356,226 2 718 1 819 608 708 10 719 469
00001.M2TS 4355 (0x1103) 0x81 AC3 rus (Russian) 5356,226 640 428 508 160 2 510 798
00001.M2TS 4356 (0x1104) 0x81 AC3 spa (Spanish) 5356,226 640 428 508 160 2 510 797
00001.M2TS 4608 (0x1200) 0x90 PGS eng (English) 5356,226 28 18 867 390 109 060
00001.M2TS 4609 (0x1201) 0x90 PGS eng (English) 5356,226 35 23 175 298 133 995
00001.M2TS 4610 (0x1202) 0x90 PGS eng (English) 5356,226 28 18 870 818 109 078
00001.M2TS 4611 (0x1203) 0x90 PGS eng (English) 5356,226 35 23 180 340 134 023
00001.M2TS 4612 (0x1204) 0x90 PGS ara (Arabic) 5356,226 15 10 040 181 61 096
00001.M2TS 4613 (0x1205) 0x90 PGS zho (Chinese) 5356,226 22 14 914 136 87 648
00001.M2TS 4614 (0x1206) 0x90 PGS ces (Czech) 5356,226 23 15 683 174 91 805
00001.M2TS 4615 (0x1207) 0x90 PGS dan (Danish) 5356,226 26 17 276 315 100 461
00001.M2TS 4616 (0x1208) 0x90 PGS nld (Dutch) 5356,226 20 13 520 348 79 951
00001.M2TS 4617 (0x1209) 0x90 PGS est (Estonian) 5356,226 27 17 764 228 103 104
00001.M2TS 4618 (0x120A) 0x90 PGS fin (Finnish) 5356,226 23 15 626 905 91 498
00001.M2TS 4619 (0x120B) 0x90 PGS fra (French) 5356,226 25 16 765 800 97 674
00001.M2TS 4620 (0x120C) 0x90 PGS deu (German) 5356,226 27 18 317 513 106 111
00001.M2TS 4621 (0x120D) 0x90 PGS ell (Greek) 5356,226 28 18 523 371 107 324
00001.M2TS 4622 (0x120E) 0x90 PGS hun (Hungarian) 5356,226 25 16 733 641 97 551
00001.M2TS 4623 (0x120F) 0x90 PGS isl (Icelandic) 5356,226 27 17 986 537 104 311
00001.M2TS 4624 (0x1210) 0x90 PGS ita (Italian) 5356,226 25 16 840 138 98 089
00001.M2TS 4625 (0x1211) 0x90 PGS kor (Korean) 5356,226 18 11 769 454 70 517
00001.M2TS 4626 (0x1212) 0x90 PGS lav (Latvian) 5356,226 23 15 608 331 91 442
00001.M2TS 4627 (0x1213) 0x90 PGS lit (Lithuanian) 5356,226 26 17 140 431 99 749
00001.M2TS 4628 (0x1214) 0x90 PGS nor (Norwegian) 5356,226 25 16 524 712 96 351
00001.M2TS 4629 (0x1215) 0x90 PGS por (Portuguese) 5356,226 26 17 652 153 102 502
00001.M2TS 4630 (0x1216) 0x90 PGS por (Portuguese) 5356,226 27 17 823 134 103 422
00001.M2TS 4631 (0x1217) 0x90 PGS rus (Russian) 5356,226 26 17 451 821 101 496
00001.M2TS 4632 (0x1218) 0x90 PGS spa (Spanish) 5356,226 26 17 278 349 100 476
00001.M2TS 4633 (0x1219) 0x90 PGS spa (Spanish) 5356,226 25 16 865 148 98 258
00001.M2TS 4634 (0x121A) 0x90 PGS swe (Swedish) 5356,226 25 16 969 619 98 773
00001.M2TS 4635 (0x121B) 0x90 PGS tha (Thai) 5356,226 23 15 500 865 90 917
00001.M2TS 4636 (0x121C) 0x90 PGS tur (Turkish) 5356,226 27 17 895 652 103 828
00001.M2TS 4637 (0x121D) 0x90 PGS ron (Romanian) 5356,226 24 16 318 394 95 263
00001.M2TS 4638 (0x121E) 0x90 PGS pol (Polish) 5356,226 24 15 902 057 92 984

<---- END FORUMS PASTE ---->

QUICK SUMMARY:

Disc Title: Sleight.Tricks.und.Drugs.und.Zauberei.2016.MULTi.COMPLETE.BLURAY-UNTOUCHED
Disc Size: 26 129 033 652 bytes
Protection: AACS
BD-Java: Yes
Playlist: 00335.MPLS
Size: 25 433 985 792 bytes
Length: 1:29:16.351
Total Bitrate: 37,99 Mbps
Video: MPEG-4 AVC Video / 26917 kbps / 1080p / 23,976 fps / 16:9 / High Profile 4.1
Audio: English / DTS-HD Master Audio / 5.1 / 48 kHz / 3316 kbps / 24-bit (DTS Core: 5.1 / 48 kHz / 1509 kbps / 24-bit)
Audio: French / Dolby Digital Audio / 5.1 / 48 kHz / 640 kbps
Audio: German / DTS-HD Master Audio / 5.1 / 48 kHz / 2718 kbps / 24-bit (DTS Core: 5.1 / 48 kHz / 1509 kbps / 24-bit)
Audio: Russian / Dolby Digital Audio / 5.1 / 48 kHz / 640 kbps
Audio: Spanish / Dolby Digital Audio / 5.1 / 48 kHz / 640 kbps
* Subtitle: English / 28,179 kbps
* Subtitle: English / 34,614 kbps
Subtitle: English / 28,185 kbps
Subtitle: English / 34,621 kbps
Subtitle: Arabic / 14,996 kbps
Subtitle: Chinese / 22,275 kbps
Subtitle: Czech / 23,424 kbps
Subtitle: Danish / 25,803 kbps
Subtitle: Dutch / 20,193 kbps
Subtitle: Estonian / 26,532 kbps
Subtitle: Finnish / 23,340 kbps
Subtitle: French / 25,041 kbps
Subtitle: German / 27,358 kbps
Subtitle: Greek / 27,666 kbps
Subtitle: Hungarian / 24,993 kbps
Subtitle: Icelandic / 26,864 kbps
Subtitle: Italian / 25,152 kbps
Subtitle: Korean / 17,578 kbps
Subtitle: Latvian / 23,312 kbps
Subtitle: Lithuanian / 25,600 kbps
Subtitle: Norwegian / 24,681 kbps
Subtitle: Portuguese / 26,364 kbps
Subtitle: Portuguese / 26,620 kbps
Subtitle: Russian / 26,065 kbps
Subtitle: Spanish / 25,806 kbps
Subtitle: Spanish / 25,189 kbps
Subtitle: Swedish / 25,345 kbps
Subtitle: Thai / 23,151 kbps
Subtitle: Turkish / 26,728 kbps
Subtitle: Romanian / 24,372 kbps
Subtitle: Polish / 23,751 kbps

********************
PLAYLIST: 00102.MPLS
********************

<--- BEGIN FORUMS PASTE --->

Total Video
Title Codec Length Movie Size Disc Size Bitrate Bitrate Main Audio Track Secondary Audio Track
----- ------ ------- -------------- -------------- ------- ------- ------------------ ---------------------
00102.MPLS AVC 0:04:47 323 100 672 26 129 033 652 9,00 8,55

DISC INFO:

Disc Title: Sleight.Tricks.und.Drugs.und.Zauberei.2016.MULTi.COMPLETE.BLURAY-UNTOUCHED
Disc Size: 26 129 033 652 bytes
Protection: AACS
BD-Java: Yes
BDInfo: 0.5.8

PLAYLIST REPORT:

Name: 00102.MPLS
Length: 0:04:47.245 (h:m:s.ms)
Size: 323 100 672 bytes
Total Bitrate: 9,00 Mbps

VIDEO:

Codec Bitrate Description
----- ------- -----------
MPEG-4 AVC Video 8554 kbps 1080p / 23,976 fps / 16:9 / High Profile 4.1

FILES:

Name Time In Length Size Total Bitrate
---- ------- ------ ---- -------------
00102.M2TS 0:00:00.000 0:04:47.245 323 100 672 8 999

CHAPTERS:

Number Time In Length Avg Video Rate Max 1-Sec Rate Max 1-Sec Time Max 5-Sec Rate Max 5-Sec Time Max 10Sec Rate Max 10Sec Time Avg Frame Size Max Frame Size Max Frame Time
------ ------- ------ -------------- -------------- -------------- -------------- -------------- -------------- -------------- -------------- -------------- --------------
1 0:00:00.000 0:00:15.015 29 334 kbps 32 278 kbps 00:00:14.014 29 429 kbps 00:00:10.010 29 266 kbps 00:00:05.005 152 510 bytes 660 356 bytes 00:00:15.015
2 0:00:15.015 0:00:15.015 6 333 kbps 11 282 kbps 00:00:25.692 6 830 kbps 00:00:24.983 6 775 kbps 00:00:19.978 33 019 bytes 695 344 bytes 00:00:26.693
3 0:00:30.030 0:00:15.015 95 kbps 247 kbps 00:00:44.044 112 kbps 00:00:40.040 99 kbps 00:00:35.035 494 bytes 21 325 bytes 00:00:45.045
4 0:00:45.045 0:00:15.015 576 kbps 5 409 kbps 00:00:59.059 1 247 kbps 00:00:55.055 744 kbps 00:00:50.050 3 004 bytes 651 150 bytes 00:01:00.060
5 0:01:00.060 0:00:15.015 13 269 kbps 19 496 kbps 00:01:08.193 13 965 kbps 00:01:05.857 13 809 kbps 00:01:04.731 69 178 bytes 776 639 bytes 00:01:10.862
6 0:01:15.075 0:00:15.015 13 271 kbps 18 736 kbps 00:01:27.504 13 926 kbps 00:01:24.626 13 639 kbps 00:01:19.621 69 187 bytes 724 519 bytes 00:01:29.214
7 0:01:30.090 0:03:17.155 7 674 kbps 13 053 kbps 00:01:39.140 8 018 kbps 00:01:35.303 7 863 kbps 00:02:08.461 40 027 bytes 783 052 bytes 00:01:40.100

STREAM DIAGNOSTICS:

File PID Type Codec Language Seconds Bitrate Bytes Packets
---- --- ---- ----- -------- -------------- -------------- ------------- -----
00102.M2TS 4113 (0x1011) 0x1B AVC 287,162 8 557 307 141 655 1 673 165

<---- END FORUMS PASTE ---->

QUICK SUMMARY:

Disc Title: Sleight.Tricks.und.Drugs.und.Zauberei.2016.MULTi.COMPLETE.BLURAY-UNTOUCHED
Disc Size: 26 129 033 652 bytes
Protection: AACS
BD-Java: Yes
Playlist: 00102.MPLS
Size: 323 100 672 bytes
Length: 0:04:47.245
Total Bitrate: 9,00 Mbps
Video: MPEG-4 AVC Video / 8554 kbps / 1080p / 23,976 fps / 16:9 / High Profile 4.1
pb.wtf



Скачать Ловкость через торрент https://d.radikal.ru/d30/1807/8d/62be9b9dd0e6.png Скачать фильм Ловкость через торрент бесплантно в хорошем качестве Описание: Молодой уличный фокусник вынужден взять на себя заботу о маленькой сестре после того, как их родители попытались незаконным путем ... 10 10 2
Info! Золотая раздача, скачанное не засчитывается.
Торрент: Зарегистрирован [2018-07-22 17:41] · скачан: 8 раз
Статус: √ проверено
Размер: 24.33 GB
Как cкачать? Как скачать Ловкость через торрент | qTorrent

% Раздел Тема Автор DL S | L
Фильмы 2016 [DVDrip, WEB-DLRip, HDrip] (DUB, MVO) [ 2.05 GB ] Ловкость / Sleight [2016 HDRip многоголосый "BD EUR"] coc900 Скачать
1 | 0
Фильмы 2016 [DVDrip, WEB-DLRip, HDrip] (DUB, MVO) [ 1.23 GB ] Ловкость / Sleight [2016 BDRip-AVC] MVO [] bober100 Скачать
1 | 0
Фильмы 2016 [DVDrip, WEB-DLRip, HDrip] (DUB, MVO) [ 1.45 GB ] Ловкость / Sleight [2016 BDRip] MVO [] Twi7ter Скачать
2 | 0
Фильмы 2016 [DVDrip, WEB-DLRip, HDrip] (DUB, MVO) [ 1.41 GB ] Ловкость / Sleight [2016 BDRip] MVO Twi7ter Скачать
1 | 0
Фильмы 2016 [DVDrip, WEB-DLRip, HDrip] (DUB, MVO) [ 1.19 GB ] Ловкость / Sleight [2016 BDRip AVC] [MVO] От R.G.Generalfilm White Smoke Скачать
1 | 0
Фильмы [HD 720p, 1080p] (Хороший звук DUB, MVO) [ 8.39 GB ] Ловкость / Sleight [2016 BDRip 1080p] [MVO] killermax2013 Скачать
2 | 0
Фильмы без перевода [ 23.27 GB ] Ловкость / Sleight [2016 BDRemux] [Оригинал-ENG] smaster Скачать
1 | 0

28-11-2019 20:33  

Отключить всю рекламу на сайте

    Дорогой пользователь! Огромная просьба, поблагодарите релизера, оцените раздачу и оставьте свои комментарий, если Вы скачали Ловкость через торрент бесплатно! Внесите свою лепту в развитие PiratBit!
    Комментировать посты могут только пользователи прошедшие не сложную регистрацию
    Показать сообщения:    

    Ловкость через торрент
    Скачать бесплатно Ловкость
    Ловкость скачать торрент
    Ловкость смотреть онлайн
    Cкачать фильм Ловкость бесплатно
    Ловкость скачать торрент в хорошем качестве
    Ловкость смотреть онлайн бесплатно в хорошем качестве


    Вы не можете начинать темы
    Вы не можете отвечать на сообщения
    Вы не можете редактировать свои сообщения
    Вы не можете удалять свои сообщения
    Вы не можете голосовать в опросах
    Вы не можете прикреплять файлы к сообщениям
    Вы можете скачивать файлы