Ссылка на приватное зеркало всего за 1$. Внимание количество ограничено!!!

OK

1+1

iTunes

мы

OK

1

WEB-DLRip

Джокер

Пифагор

Ведьмак / The Witcher сериал

Лицензия

ПШазам

ОК

Оно 2

iTunes

30
pack

Вам бонус

ВАЖНО

!!Акция!!

Alien_RageХит недели

RePack

Resident Evil 21

ИГРА 18+

pack

RePack

jed

!!Акция!!

Alien_Rage

RePack

fifa19

RePack

Assassins Creed: Odyssey

RePack

NEED FOR SPEED™ PAYBACK

4 сезон

9 сезон

Бесстыжие 9 сезон

Все сериалы

все сериалы на PB.wtf

RePack

FAR CRY 5
  

Кавалерия / 12 Strong (Николай Фульси) [2018, боевик, драма, военный, UHD BDRip 2160p SDR] DUB [iTunes] + MVO [HDRezka Studio] pb.wtf

Кавалерия через торрент pb.wtf

Размер: 37.1 GB | Добавлен: 1 год 5 мес. назад | Торрент скачан:7 раз
Скачать  

23-07-2018 01:25 Кавалерия Скачать торрент  

Кавалерия / 12 Strong

Год выпуска: 2018
Страна: США
Жанр: боевик, драма, военный, история
Продолжительность: 02:10:39
Перевод: Дублированный, профессиональный многоголосый
Субтитры: русские (Forced), английские (Full, SDH) немецкие (Forced)
Режиссер: Николай Фульси
В ролях:

Крис Хемсворт (Captain Mitch Nelson), Майкл Шеннон (Hal Spencer), Майкл Пенья (Sam Diller), Навид Негабан (Gen. Dostum), Треванте Роудс (Ben Milo), Джофф Стульц (Sean Coffers), Тэд Лакинбилл (Vern Michaels), Остин Хеберт (Pat Essex), Остин Стоуэлл (Fred Falls), Бен О’Тул (Scott Black), Кеннет Миллер (Kevin Jackson), Кенни Шерд (Bill Bennett)
Описание:
Их бросили в пекло после 11 сентября, когда мир раскололся на «до» и «после». Именно им предстояло на передовой бороться с врагом, не знающим пощады. На чужой земле преимущество у всадников - этому их научили нежданные союзники. Вместе они попытаются удержать мир от погружения в хаос.
Рейтинг:

MPAA: R - Лицам до 17 лет обязательно присутствие взрослого
Качество: UHD BDRip 2160p SDR
Формат: MKV
Видео: MPEG-4 AVC, 37000 Кбит/с, 3840x1600, 23.976 кадр/с
Аудио 1: АС3, 6 ch, 48 kHz, 384 kbps Dub iTunes Русский
Аудио 2: АС3, 6 ch, 48 kHz, 384 kbps MVO HDRezka Studio Русский
Аудио 3: DTS-HD MА, 8 ch, 48 kHz, 2855 kbps Английский
Навигация по главам: есть
Общее
Уникальный идентификатор : 250072028990768363335927605021717086582 (0xBC221EF28FD24516B2A3AB002C0CC176)
Полное имя : G:\12.Strong.2018.2160p.BluRay.x264.8bit.SDR.Master5.mkv
Формат : Matroska
Версия формата : Version 4 / Version 2
Размер файла : 37,1 Гбайт
Продолжительность : 2 ч. 10 м.
Общий поток : 40,7 Мбит/сек
Название фильма : 12.Strong.2018.2160p.BluRay.x264.8bit.SDR.Master5
Дата кодирования : UTC 2018-07-22 17:10:20
Программа кодирования : mkvmerge v7.9.0 ('Birds') 64bit
Библиотека кодирования : libebml v1.3.1 + libmatroska v1.4.2
Обложка : Yes
Attachments : small_cover.jpg / small_cover_land.jpg / cover.jpg / cover_land.jpg

Видео
Идентификатор : 1
Формат : AVC
Формат/Информация : Advanced Video Codec
Профиль формата : High@L5.1
Настройки формата : CABAC / 5 Ref Frames
Параметр CABAC формата : Да
Параметр RefFrames формата : 5 кадров
Идентификатор кодека : V_MPEG4/ISO/AVC
Продолжительность : 2 ч. 10 м.
Битрейт : 37,0 Мбит/сек
Ширина : 3840 пикселей
Высота : 1600 пикселей
Соотношение сторон : 2,40:1
Режим частоты кадров : Постоянный
Частота кадров : 23,976 (24000/1001) кадра/сек
Цветовое пространство : YUV
Субдискретизация насыщенности : 4:2:0
Битовая глубина : 8 бит
Тип развёртки : Прогрессивная
Бит/(Пиксели*Кадры) : 0.251
Размер потока : 33,8 Гбайт (91%)
Заголовок : 12.Strong.2018.2160p.BluRay.x264.8bit.SDR.Master5
Библиотека кодирования : x264 core 155 r2901 7d0ff22
Настройки программы : cabac=1 / ref=5 / deblock=1:-1:-1 / analyse=0x3:0x113 / me=umh / subme=10 / psy=1 / psy_rd=1.00:0.15 / mixed_ref=1 / me_range=48 / chroma_me=1 / trellis=2 / 8x8dct=1 / cqm=0 / deadzone=21,11 / fast_pskip=1 / chroma_qp_offset=-3 / threads=36 / lookahead_threads=3 / sliced_threads=0 / nr=0 / decimate=0 / interlaced=0 / bluray_compat=0 / constrained_intra=0 / bframes=3 / b_pyramid=2 / b_adapt=2 / b_bias=0 / direct=3 / weightb=1 / open_gop=0 / weightp=2 / keyint=250 / keyint_min=23 / scenecut=40 / intra_refresh=0 / rc_lookahead=50 / rc=crf / mbtree=1 / crf=18.0 / qcomp=0.60 / qpmin=0 / qpmax=69 / qpstep=4 / ip_ratio=1.40 / aq=1:1.00
Язык : English
Default : Да
Forced : Нет

Аудио #1
Идентификатор : 2
Формат : AC-3
Формат/Информация : Audio Coding 3
Идентификатор кодека : A_AC3
Продолжительность : 2 ч. 10 м.
Вид битрейта : Постоянный
Битрейт : 384 Кбит/сек
Каналы : 6 каналов
Расположение каналов : Front: L C R, Side: L R, LFE
Частота : 48,0 КГц
Частота кадров : 31,250 кадров/сек (1536 SPF)
Битовая глубина : 16 бит
Метод сжатия : С потерями
Размер потока : 357 Мбайт (1%)
Заголовок : Dub
Язык : Russian
ServiceKind/String : Complete Main
Default : Да
Forced : Да

Аудио #2
Идентификатор : 3
Формат : AC-3
Формат/Информация : Audio Coding 3
Идентификатор кодека : A_AC3
Продолжительность : 2 ч. 10 м.
Вид битрейта : Постоянный
Битрейт : 384 Кбит/сек
Каналы : 6 каналов
Расположение каналов : Front: L C R, Side: L R, LFE
Частота : 48,0 КГц
Частота кадров : 31,250 кадров/сек (1536 SPF)
Битовая глубина : 16 бит
Метод сжатия : С потерями
Размер потока : 359 Мбайт (1%)
Заголовок : HDRezka
Язык : Russian
ServiceKind/String : Complete Main
Default : Нет
Forced : Нет

Аудио #3
Идентификатор : 4
Формат : DTS
Формат/Информация : Digital Theater Systems
Профиль формата : MA / Core
Идентификатор кодека : A_DTS
Продолжительность : 2 ч. 10 м.
Вид битрейта : Переменный / Постоянный
Битрейт : 2855 Кбит/сек / 1509 Кбит/сек
Каналы : 8 каналов / 6 каналов
Расположение каналов : Front: L C R, Side: L R, Back: L R, LFE / Front: L C R, Side: L R, LFE
Частота : 48,0 КГц
Частота кадров : 93,750 кадра/сек (512 SPF)
Битовая глубина : 16 бит
Метод сжатия : Без потерь / Lossy
Размер потока : 2,61 Гбайт (7%)
Язык : English
Default : Нет
Forced : Нет

Текст #1
Идентификатор : 5
Формат : UTF-8
Идентификатор кодека : S_TEXT/UTF8
Идентификатор кодека/Информация : UTF-8 Plain Text
Продолжительность : 2 ч. 0 м.
Битрейт : 5 бит/сек
ElementCount : 79
Размер потока : 4,61 Кбайт (0%)
Заголовок : Forced
Язык : Russian
Default : Да
Forced : Да

Текст #2
Идентификатор : 6
Формат : UTF-8
Идентификатор кодека : S_TEXT/UTF8
Идентификатор кодека/Информация : UTF-8 Plain Text
Продолжительность : 1 ч. 58 м.
Битрейт : 59 бит/сек
ElementCount : 1561
Размер потока : 51,8 Кбайт (0%)
Заголовок : Full
Язык : English
Default : Нет
Forced : Нет

Текст #3
Идентификатор : 7
Формат : UTF-8
Идентификатор кодека : S_TEXT/UTF8
Идентификатор кодека/Информация : UTF-8 Plain Text
Продолжительность : 2 ч. 8 м.
Битрейт : 59 бит/сек
ElementCount : 1718
Размер потока : 55,8 Кбайт (0%)
Заголовок : SDH
Язык : English
Default : Нет
Forced : Нет

Текст #4
Идентификатор : 8
Формат : PGS
Режим смешивания : zlib
Идентификатор кодека : S_HDMV/PGS
Идентификатор кодека/Информация : Picture based subtitle format used on BDs/HD-DVDs
Продолжительность : 1 ч. 42 м.
Битрейт : 433 бит/сек
ElementCount : 102
Размер потока : 326 Кбайт (0%)
Заголовок : German-FORCED
Язык : German
Default : Нет
Forced : Нет

Текст #5
Идентификатор : 9
Формат : PGS
Режим смешивания : zlib
Идентификатор кодека : S_HDMV/PGS
Идентификатор кодека/Информация : Picture based subtitle format used on BDs/HD-DVDs
Продолжительность : 2 ч. 8 м.
Битрейт : 12,9 Кбит/сек
ElementCount : 2994
Размер потока : 11,9 Мбайт (0%)
Заголовок : German
Язык : German
Default : Нет
Forced : Нет

Меню
00:00:00.000 : en:Chapter 1
00:11:37.875 : en:Chapter 2
00:22:14.416 : en:Chapter 3
00:32:49.124 : en:Chapter 4
00:44:23.166 : en:Chapter 5
00:56:09.624 : en:Chapter 6
01:06:01.708 : en:Chapter 7
01:13:39.207 : en:Chapter 8
01:24:07.458 : en:Chapter 9
01:34:04.541 : en:Chapter 10
01:43:15.249 : en:Chapter 11
01:57:15.207 : en:Chapter 12
pb.wtf



Скачать Кавалерия через торрент https://a.radikal.ru/a29/1807/38/83a336695bdf.png Скачать фильм Кавалерия через торрент бесплантно в хорошем качестве Описание: Их бросили в пекло после 11 сентября, когда мир раскололся на «до» и «после». Именно им предстояло на передовой бороться с ... 10 10 1
Торрент: Зарегистрирован [2018-07-23 01:25] · скачан: 7 раз
Статус: √ проверено
Размер: 37.1 GB
Как cкачать? Как скачать Кавалерия через торрент | qTorrent

% Раздел Тема Автор DL S | L
Фильмы [HD 720p, 1080p] (Хороший звук DUB, MVO) [ 5.75 GB ] Кавалерия / 12 Strong [2018 военный история BDRip 1080p HEVC ()] Мичман37 Скачать
1 | 0
Фильмы 2018 [DVDrip, WEB-DLRip, HDrip] (DUB, MVO) [ 2.13 GB ] Кавалерия / 12 Strong [2018 военный история BDRip] - Twi7ter Скачать
2 | 0
Ultra HD (UHD: 2K, 4K, 8K) — видео сверхвысокой чёткости [ 18.07 GB ] Кавалерия / 12 Strong [2018 военный UHD BDRip 2160p] sheker187 Скачать
1 | 0
Ultra HD (UHD: 2K, 4K, 8K) — видео сверхвысокой чёткости [ 45.61 GB ] Кавалерия / 12 Strong [2018 военный UHD BDRemux 2160p] - sheker187 Скачать
1 | 0

28-11-2019 20:33  

Отключить всю рекламу на сайте

    Дорогой пользователь! Огромная просьба, поблагодарите релизера, оцените раздачу и оставьте свои комментарий, если Вы скачали Кавалерия через торрент бесплатно! Внесите свою лепту в развитие PiratBit!
    Комментировать посты могут только пользователи прошедшие не сложную регистрацию
    Показать сообщения:    

    Кавалерия через торрент
    Скачать бесплатно Кавалерия
    Кавалерия скачать торрент
    Кавалерия смотреть онлайн
    Cкачать фильм Кавалерия бесплатно
    Кавалерия скачать торрент в хорошем качестве
    Кавалерия смотреть онлайн бесплатно в хорошем качестве


    Вы не можете начинать темы
    Вы не можете отвечать на сообщения
    Вы не можете редактировать свои сообщения
    Вы не можете удалять свои сообщения
    Вы не можете голосовать в опросах
    Вы не можете прикреплять файлы к сообщениям
    Вы можете скачивать файлы