Всегда рабочее зеркало без VPN и Proxy просто перед .vidak.icu напиши любое слово или цифру, Пример http://gqmz.vidak.icu

MVO

Лицензия

1 сезон

1

1 сезон

iTunes

1 сезон

13

1 сезон

Deluxe

pack

Рекомендуем

Repack

30

ВАЖНО

RePack

MK11

RePack

jed

RePack

fifa19

RePack

RDR2

RePack

NEED FOR SPEED™ PAYBACK

Кинопоиск HD

6 сезон

 Острые козырьки 6 сезон

Все сериалы

все сериалы на PB.wtf

RePack

FAR CRY 5
  
Magnet ссылка

Опасный бизнес / Gringo (Нэш Эдгертон) [2018, Боевик, комедия, криминал, BD Remux 1080p] AVO [Д. Есарев] +DUB (rus, ukr) [iTunes] pb.wtf

Опасный бизнес через торрент pb.wtf

Размер: 32.96 GB | Добавлен: 3 года 11 мес. назад | Торрент скачан:37 раз
Смотреть онлайн Опасный бизнес | Скачать    Ребята, помогите собрать деньги на оплату серверов!!!

23-07-2018 05:14 Опасный бизнес Скачать торрент  

Опасный бизнес / Gringo
Год выпуска: 2018
Страна: США, Австралия
Жанр: Боевик, комедия, криминал
Продолжительность: 01:50:38
Перевод:

#1: Дублированный | iTunes
#2: Авторский | Дмитрий Есарев

Субтитры: Английские

Режиссер: Нэш Эдгертон

rating

В ролях:

Джоэл Эдгертон, Шарлиз Терон, Дэвид Ойелоуо, Тэнди Ньютон, Башир Салахуддин, Гленн Кубота, Мелони Диас, Аманда Сайфред, Гарри Тредэвэй, Тео Таплитц

Описание:

Дерзкая длинноногая блондинка — она идеально подходит для опасного бизнеса. Однажды одному из ее подчиненных становится известна уникальная формула, за которой гоняется весь мир. Он решает инсценировать собственное похищение и потребовать выкуп у компании. Лучше этому умнику не рассчитывать на помощь своей эффектной начальницы, ведь для корпорации он предпочтительнее мертвый, чем живой.

Качество: BD Remux 1080p
Формат: MKV

Видео: MPEG-4 AVC, 1920x1080, 34.9 Mbit/s, 23.976 fps
Аудио#1: 48 kHz, AC3, 5.1, 384 Kbps | iTunes | RUS |
Аудио #2: 48 kHz, DTS-HD MA, 5.1, 3481 Kbps | Авторский | RUS |
Аудио#3: 48 kHz, AC3, 5.1, 384 Kbps | iTunes | UKR |
Аудио#4: 48 kHz, DTS-HD MA, 5.1, 3450 Kbps | Оригинал | ENG |
скриншот   скриншот   скриншот   скриншот   скриншот  

General
Unique ID : 181251191604959213790152936482439945135 (0x885BB5B14F5C5989CD4A33B9ADBFDBAF)
Complete name : D:Video111Gringo.2018.D.AVO.BDREMUX.1080p.ExKinoRay.mkv
Format : Matroska
Format version : Version 4 / Version 2
File size : 33.0 GiB
Duration : 1 h 50 min
Overall bit rate mode : Variable
Overall bit rate : 42.7 Mb/s
Movie name : Gringo 2018 from ExKinoRay
Encoded date : UTC 2018-07-22 21:51:39
Writing application : mkvmerge v23.0.0 ('The Bride Said No') 64-bit
Writing library : libebml v1.3.6 + libmatroska v1.4.9

Video
ID : 1
Format : AVC
Format/Info : Advanced Video Codec
Format profile : [email protected]
Format settings : CABAC / 4 Ref Frames
Format settings, CABAC : Yes
Format settings, ReFrames : 4 frames
Codec ID : V_MPEG4/ISO/AVC
Duration : 1 h 50 min
Bit rate mode : Variable
Bit rate : 34.9 Mb/s
Maximum bit rate : 37.0 Mb/s
Width : 1 920 pixels
Height : 1 080 pixels
Display aspect ratio : 16:9
Frame rate mode : Constant
Frame rate : 23.976 (24000/1001) FPS
Color space : YUV
Chroma subsampling : 4:2:0
Bit depth : 8 bits
Scan type : Progressive
Bits/(Pixel*Frame) : 0.703
Stream size : 27.0 GiB (82%)
Language : English
Default : Yes
Forced : No

Audio #1
ID : 2
Format : AC-3
Format/Info : Audio Coding 3
Codec ID : A_AC3
Duration : 1 h 50 min
Bit rate mode : Constant
Bit rate : 384 kb/s
Channel(s) : 6 channels
Channel positions : Front: L C R, Side: L R, LFE
Sampling rate : 48.0 kHz
Frame rate : 31.250 FPS (1536 SPF)
Bit depth : 16 bits
Compression mode : Lossy
Stream size : 304 MiB (1%)
Title : iTunes
Language : Russian
Service kind : Complete Main
Default : Yes
Forced : Yes

Audio #2
ID : 3
Format : DTS
Format/Info : Digital Theater Systems
Format profile : MA / Core
Codec ID : A_DTS
Duration : 1 h 50 min
Bit rate mode : Variable / Constant
Bit rate : 3 481 kb/s / 1 509 kb/s
Channel(s) : 6 channels
Channel positions : Front: L C R, Side: L R, LFE
Sampling rate : 48.0 kHz
Frame rate : 93.750 FPS (512 SPF)
Bit depth : 24 bits
Compression mode : Lossless / Lossy
Stream size : 2.69 GiB (8%)
Title : AVO [Есарев]
Language : Russian
Default : No
Forced : No

Audio #3
ID : 4
Format : AC-3
Format/Info : Audio Coding 3
Codec ID : A_AC3
Duration : 1 h 50 min
Bit rate mode : Constant
Bit rate : 384 kb/s
Channel(s) : 6 channels
Channel positions : Front: L C R, Side: L R, LFE
Sampling rate : 48.0 kHz
Frame rate : 31.250 FPS (1536 SPF)
Bit depth : 16 bits
Compression mode : Lossy
Stream size : 304 MiB (1%)
Title : iTunes
Language : Ukrainian
Service kind : Complete Main
Default : No
Forced : No

Audio #4
ID : 5
Format : DTS
Format/Info : Digital Theater Systems
Format profile : MA / Core
Codec ID : A_DTS
Duration : 1 h 50 min
Bit rate mode : Variable / Constant
Bit rate : 3 450 kb/s / 1 509 kb/s
Channel(s) : 6 channels
Channel positions : Front: L C R, Side: L R, LFE
Sampling rate : 48.0 kHz
Frame rate : 93.750 FPS (512 SPF)
Bit depth : 24 bits
Compression mode : Lossless / Lossy
Stream size : 2.67 GiB (8%)
Title : Original
Language : English
Default : No
Forced : No

Text
ID : 6
Format : UTF-8
Codec ID : S_TEXT/UTF8
Codec ID/Info : UTF-8 Plain Text
Duration : 1 h 44 min
Bit rate : 64 b/s
Count of elements : 1492
Stream size : 49.6 KiB (0%)
Language : English
Default : No
Forced : No

Menu
00:00:00.000 : en:00:00:00.000
00:02:29.024 : en:00:02:29.024
00:08:36.808 : en:00:08:36.808
00:14:49.388 : en:00:14:49.388
00:19:43.057 : en:00:19:43.057
00:26:11.195 : en:00:26:11.195
00:29:59.548 : en:00:29:59.548
00:34:12.676 : en:00:34:12.676
00:41:59.600 : en:00:41:59.600
00:49:14.702 : en:00:49:14.702
00:57:12.304 : en:00:57:12.304
01:02:56.940 : en:01:02:56.940
01:09:40.551 : en:01:09:40.551
01:16:20.951 : en:01:16:20.951
01:20:38.125 : en:01:20:38.125
01:25:53.857 : en:01:25:53.857
01:29:14.224 : en:01:29:14.224
01:33:46.704 : en:01:33:46.704
01:39:06.524 : en:01:39:06.524
01:43:28.869 : en:01:43:28.869

pb.wtf



Скачать Опасный бизнес через торрент http://img12.lostpic.net/2018/05/23/fa2970d20c3d08e4f0cf1e687c62eb29.jpg Скачать, смотреть онлайн Опасный бизнес бесплантно в хорошем качестве Описание: Дерзкая длинноногая блондинка — она идеально подходит для опасного бизнеса. Однажды одному из ее подчиненных становится известна ... 7 10 5
Торрент: Зарегистрирован [2018-07-23 05:14] · скачан: 37 раз
Статус: √ проверено
Размер: 32.96 GB
Как cкачать? Как скачать Опасный бизнес через торрент | UTorrent

% Раздел Тема Автор DL S | L
Фильмы 2018 [DVDrip, WEB-DLRip, HDrip] (DUB, MVO) [ 2.52 GB ] Опасный бизнес / Gringo [2018 BDRip-AVC] - AVO [Есарев] - ExKinoRay Enigma2010 Скачать
2 | 0
Фильмы 2018 [DVDrip, WEB-DLRip, HDrip] (DUB, MVO) [ 1.41 GB ] Опасный бизнес / Gringo [2018 BDRip] DEVI Скачать
2 | 0
Фильмы (WEB-DL 720p, 1080p) [ 4.03 GB ] Опасный бизнес / Gringo [2018 WEB-DL 720p] DUB bober100 Скачать
1 | 0
Фильмы [HD 720p, 1080p] (Хороший звук DUB, MVO) [ 5.24 GB ] Опасный бизнес / Gringo [2018 BDRip 720p] DUB bober100 Скачать
2 | 0

28-11-2019 20:33  

Отключить всю рекламу на сайте

    Дорогой пользователь! Огромная просьба, поблагодарите релизера, оцените раздачу и оставьте свои комментарий, если Вы скачали Опасный бизнес через торрент бесплатно!
    Комментировать посты могут только пользователи прошедшие не сложную регистрацию
    Показать сообщения:    

    Опасный бизнес через торрент
    Скачать бесплатно Опасный бизнес
    Опасный бизнес скачать торрент
    Опасный бизнес смотреть онлайн
    Cкачать фильм Опасный бизнес бесплатно
    Опасный бизнес скачать торрент в хорошем качестве
    Опасный бизнес смотреть онлайн бесплатно в хорошем качестве


    Вы не можете начинать темы
    Вы не можете отвечать на сообщения
    Вы не можете редактировать свои сообщения
    Вы не можете удалять свои сообщения
    Вы не можете голосовать в опросах
    Вы не можете прикреплять файлы к сообщениям
    Вы можете скачивать файлы