Ссылка на приватное зеркало всего за 1$. Внимание количество ограничено!!!


iTunes

1+1

iTunes

мы

WEB-DL

1

iTunes

Чернобыль

iTunes

Ральф против интернета

Лицензия

ПШазам

Лицензия

Оно 2

WEB-DL

30
pack

Вам бонус

ВАЖНО

!!Акция!!

Alien_RageХит недели

RePack

Resident Evil 21

ИГРА 18+

pack

RePack

jed

!!Акция!!

Alien_Rage

RePack

fifa19

RePack

Assassins Creed: Odyssey

RePack

NEED FOR SPEED™ PAYBACK

4 сезон

9 сезон

Бесстыжие 9 сезон

Все сериалы

все сериалы на PB.wtf

RePack

FAR CRY 5
Ребята, катастрофически не хватает 1900р. для оплаты серверов за Октябрь (всвязи с блокировками трафик упал в 3 раза), 1-2р., выручайте.
  

Люди Икс : Антология / X-Men : Antology [2000-2017, фантастика, боевик, приключения, BDRip-AVC, Дублированный [Лицензия] от R.G.Generalfilm pb.wtf

Люди Икс : Антология через торрент pb.wtf

Раздают: 2 [ 0 KB/s ] Качают: 1 [ 0 KB/s ]
Размер: 17.84 GB | Добавлен: 1 год 4 мес. назад | Торрент скачан:268 раз
Скачать  

23-07-2018 12:52 Люди Икс : Антология Скачать торрент  


Люди Икс / X-Men
««Доверяй немногим, бойся остальных»»

Год выпуска: 2000
Страна: США
Жанр: фантастика, боевик, приключения
Продолжительность: 01:44:20
Перевод: Дублированный [Лицензия]
Субтитры: русские (Полные),
английские (Полные),
Режиссер: Брайан Сингер
В ролях:

Хью Джекман (Logan / Wolverine), Патрик Стюарт (Professor Charles Xavier), Иэн МакКеллен (Eric Lensherr / Magneto), Фамке Янссен (Jean Grey), Джеймс Марсден (Scott Summers / Cyclops), Холли Берри (Ororo Munroe / Storm), Анна Пэкуин (Rogue), Шон Эшмор (Bobby Drake / Iceman), Ребекка Ромейн (Mystique), Тайлер Мэйн (Sabretooth), Рэй Парк (Toad), Брюс Дэвисон (Senator Kelly)
Описание:
Они - дети атомного века, сверхлюди, новое звено в цепи эволюции. Каждый из них был рождён в результате уникальной генетической мутации, наделившей их с детства необыкновенными способностями. Под руководством профессора Чарльза Ксавьера, телепата с мировым именем, одарённые ученики научились контролировать и управлять своими удивительными способностями в интересах человечества.
? Мировая премьера: 12 июля 2000

Качество: BDRip-AVC
Формат: MKV
Видео кодек: AVC
Аудио кодек: AC3
Видео: AVC, 1024x430 (2.40:1), 1400 kbps, 23,976 fps, 0,133 bpp
Аудио: AC3 / 5.1 / 48 kHz / 448 kbps /
Навигация по главам: есть
General
Unique ID : 235719736590606816968801802794886871858 (0xB155F84C90B07A68AB63AE8B2F45BB32)
Complete name : E:\Запись с тв\X-Men Antology 2000-2017 BDRip-AVC R.G.Generalfilm\X-Men.2000.BDRip-AVC.Rip.by.White Smoke.R.G.Generalfilm.mkv
Format : Matroska
Format version : Version 2
File size : 1.35 GiB
Duration : 1 h 44 min
Overall bit rate : 1 850 kb/s
Movie name : X-Men.2000.BDRip-AVC.Rip.by.White Smoke.R.G.Generalfilm
Encoded date : UTC 2018-07-09 23:42:19
Writing application : mkvmerge v7.6.0 ('Garden of Dreams') 32bit built on Feb 11 2015 00:18:47
Writing library : libebml v1.3.1 + libmatroska v1.4.2
Cover : Yes
Attachments : Cover X-Men.2000.BDRip-AVC.Rip.by.White Smoke.R.G.Generalfilm

Video
ID : 1
Format : AVC
Format/Info : Advanced Video Codec
Format profile : High@L4.1
Format settings, CABAC : Yes
Format settings, ReFrames : 10 frames
Codec ID : V_MPEG4/ISO/AVC
Duration : 1 h 44 min
Bit rate : 1 400 kb/s
Width : 1 024 pixels
Height : 430 pixels
Display aspect ratio : 2.40:1
Frame rate mode : Constant
Frame rate : 23.976 (24000/1001) FPS
Color space : YUV
Chroma subsampling : 4:2:0
Bit depth : 8 bits
Scan type : Progressive
Bits/(Pixel*Frame) : 0.133
Stream size : 1 019 MiB (74%)
Writing library : x264 core 148 r2638 7599210
Encoding settings : cabac=1 / ref=10 / deblock=1:-2:-1 / analyse=0x3:0x113 / me=umh / subme=11 / psy=1 / psy_rd=0.00:0.15 / mixed_ref=1 / me_range=32 / chroma_me=1 / trellis=2 / 8x8dct=1 / cqm=0 / deadzone=21,11 / fast_pskip=0 / chroma_qp_offset=-3 / threads=6 / lookahead_threads=1 / sliced_threads=0 / nr=0 / decimate=0 / interlaced=0 / bluray_compat=0 / constrained_intra=0 / bframes=10 / b_pyramid=2 / b_adapt=2 / b_bias=0 / direct=1 / weightb=1 / open_gop=0 / weightp=2 / keyint=240 / keyint_min=23 / scenecut=40 / intra_refresh=0 / rc_lookahead=40 / rc=2pass / mbtree=1 / bitrate=1400 / ratetol=1.0 / qcomp=0.65 / qpmin=0 / qpmax=69 / qpstep=4 / cplxblur=20.0 / qblur=0.5 / vbv_maxrate=50000 / vbv_bufsize=65500 / nal_hrd=none / filler=0 / ip_ratio=1.40 / aq=1:1.00
Language : English
Default : Yes
Forced : No

Audio
ID : 2
Format : AC-3
Format/Info : Audio Coding 3
Mode extension : CM (complete main)
Format settings, Endianness : Big
Codec ID : A_AC3
Duration : 1 h 44 min
Bit rate mode : Constant
Bit rate : 448 kb/s
Channel(s) : 6 channels
Channel positions : Front: L C R, Side: L R, LFE
Sampling rate : 48.0 kHz
Frame rate : 31.250 FPS (1536 spf)
Compression mode : Lossy
Stream size : 334 MiB (24%)
Default : Yes
Forced : No

Text #1
ID : 3
Format : UTF-8
Codec ID : S_TEXT/UTF8
Codec ID/Info : UTF-8 Plain Text
Title : Полные
Language : Russian
Default : No
Forced : No

Text #2
ID : 4
Format : UTF-8
Codec ID : S_TEXT/UTF8
Codec ID/Info : UTF-8 Plain Text
Title : Полные
Language : English
Default : No
Forced : No

Menu
00:00:00.000 : en:Chapter 1
00:01:19.287 : en:Chapter 2
00:04:18.132 : en:Chapter 3
00:05:56.022 : en:Chapter 4
00:07:56.058 : en:Chapter 5
00:09:23.688 : en:Chapter 6
00:11:37.697 : en:Chapter 7
00:14:38.502 : en:Chapter 8
00:18:01.663 : en:Chapter 9
00:20:49.665 : en:Chapter 10
00:22:09.119 : en:Chapter 11
00:23:58.645 : en:Chapter 12
00:28:45.849 : en:Chapter 13
00:29:55.168 : en:Chapter 14
00:32:06.507 : en:Chapter 15
00:33:37.682 : en:Chapter 16
00:36:37.236 : en:Chapter 17
00:38:25.177 : en:Chapter 18
00:41:11.886 : en:Chapter 19
00:44:13.859 : en:Chapter 20
00:45:50.456 : en:Chapter 21
00:48:41.543 : en:Chapter 22
00:50:22.436 : en:Chapter 23
00:52:05.831 : en:Chapter 24
00:54:58.211 : en:Chapter 25
00:58:11.154 : en:Chapter 26
00:59:19.764 : en:Chapter 27
01:01:54.961 : en:Chapter 28
01:03:17.627 : en:Chapter 29
01:06:02.375 : en:Chapter 30
01:08:39.782 : en:Chapter 31
01:12:21.378 : en:Chapter 32
01:18:03.804 : en:Chapter 33
01:20:53.223 : en:Chapter 34
01:24:28.063 : en:Chapter 35
01:26:58.421 : en:Chapter 36
01:29:08.509 : en:Chapter 37
01:31:47.210 : en:Chapter 38
01:33:12.878 : en:Chapter 39
01:35:12.123 : en:Chapter 40
01:44:20.045 : en:Chapter 41
Люди Икс 2 / X2
««Сплотиться сегодня, чтобы наступило завтра»»


Год выпуска: 2003
Страна: Канада, США
Жанр: фантастика, боевик, триллер, приключения

Продолжительность: 02:13:47
Перевод: Дублированный [Лицензия]
Субтитры: русские,
Режиссер: Брайан Сингер
В ролях:

Патрик Стюарт (Professor Charles Xavier), Хью Джекман (Logan / Wolverine), Иэн МакКеллен (Eric Lehnsherr / Magneto), Холли Берри (Ororo Munroe / Storm), Фамке Янссен (Jean Grey), Джеймс Марсден (Scott Summers / Cyclops), Анна Пэкуин (Rogue), Ребекка Ромейн (Raven Darkholme / Mystique / Grace), Брайан Кокс (William Stryker), Алан Камминг (Kurt Wagner / Nightcrawler), Брюс Дэвисон (Senator Kelly), Аарон Стэнфорд (John Allerdyce / Pyro)
Описание:
Мутанты продолжают борьбу против общества, которое страшит их, и которому они не доверяют. Их положение становится еще более отчаянным, когда они подвергаются мощной атаке неизвестного противника, обладающего экстраординарными способностями.
? Мировая премьера: 24 апреля 2003

Качество: BDRip-AVC
Формат: MKV
Видео кодек: AVC
Аудио кодек: AC3
Видео: AVC, 1024x430 (2.40:1), 1515 kbps, 23,976 fps, 0,144 bpp
Аудио: AC3 / 5.1 / 48 kHz / 448 kbps /
Навигация по главам: есть
General
Unique ID : 236482873416264990975727790825105290017 (0xB1E8F1D97A8E2DFBB17692C2FDCC7321)
Complete name : E:\Запись с тв\X-Men Antology 2000-2017 BDRip-AVC R.G.Generalfilm\X-Men 2.2003.BDRip-AVC.Rip.by.White Smoke.R.G.Generalfilm.mkv
Format : Matroska
Format version : Version 2
File size : 1.84 GiB
Duration : 2 h 13 min
Overall bit rate : 1 964 kb/s
Movie name : X-Men 2.2003.BDRip-AVC.Rip.by.White Smoke.R.G.Generalfilm.mkv
Encoded date : UTC 2018-07-10 15:44:12
Writing application : mkvmerge v7.6.0 ('Garden of Dreams') 32bit built on Feb 11 2015 00:18:47
Writing library : libebml v1.3.1 + libmatroska v1.4.2
Cover : Yes
Attachments : cover.jpg

Video
ID : 1
Format : AVC
Format/Info : Advanced Video Codec
Format profile : High@L4.1
Format settings, CABAC : Yes
Format settings, ReFrames : 10 frames
Codec ID : V_MPEG4/ISO/AVC
Duration : 2 h 13 min
Bit rate : 1 515 kb/s
Width : 1 024 pixels
Height : 430 pixels
Display aspect ratio : 2.40:1
Frame rate mode : Constant
Frame rate : 23.976 (24000/1001) FPS
Color space : YUV
Chroma subsampling : 4:2:0
Bit depth : 8 bits
Scan type : Progressive
Bits/(Pixel*Frame) : 0.144
Stream size : 1.38 GiB (75%)
Writing library : x264 core 148 r2638 7599210
Encoding settings : cabac=1 / ref=10 / deblock=1:-2:-1 / analyse=0x3:0x113 / me=umh / subme=11 / psy=1 / psy_rd=0.00:0.15 / mixed_ref=1 / me_range=32 / chroma_me=1 / trellis=2 / 8x8dct=1 / cqm=0 / deadzone=21,11 / fast_pskip=0 / chroma_qp_offset=-3 / threads=6 / lookahead_threads=1 / sliced_threads=0 / nr=0 / decimate=0 / interlaced=0 / bluray_compat=0 / constrained_intra=0 / bframes=10 / b_pyramid=2 / b_adapt=2 / b_bias=0 / direct=1 / weightb=1 / open_gop=0 / weightp=2 / keyint=240 / keyint_min=23 / scenecut=40 / intra_refresh=0 / rc_lookahead=40 / rc=2pass / mbtree=1 / bitrate=1515 / ratetol=1.0 / qcomp=0.65 / qpmin=0 / qpmax=69 / qpstep=4 / cplxblur=20.0 / qblur=0.5 / vbv_maxrate=50000 / vbv_bufsize=65500 / nal_hrd=none / filler=0 / ip_ratio=1.40 / aq=1:1.00
Language : English
Default : Yes
Forced : No

Audio
ID : 2
Format : AC-3
Format/Info : Audio Coding 3
Mode extension : CM (complete main)
Format settings, Endianness : Big
Codec ID : A_AC3
Duration : 2 h 13 min
Bit rate mode : Constant
Bit rate : 448 kb/s
Channel(s) : 6 channels
Channel positions : Front: L C R, Side: L R, LFE
Sampling rate : 48.0 kHz
Frame rate : 31.250 FPS (1536 spf)
Compression mode : Lossy
Stream size : 429 MiB (23%)
Default : Yes
Forced : No

Text
ID : 3
Format : UTF-8
Codec ID : S_TEXT/UTF8
Codec ID/Info : UTF-8 Plain Text
Language : Russian
Default : Yes
Forced : No

Menu
00:00:00.000 : en:00:00:00.000
00:01:50.527 : en:00:01:50.527
00:05:21.947 : en:00:05:21.947
00:07:12.265 : en:00:07:12.265
00:12:27.121 : en:00:12:27.121
00:15:34.225 : en:00:15:34.225
00:17:57.326 : en:00:17:57.326
00:19:25.706 : en:00:19:25.706
00:22:47.616 : en:00:22:47.616
00:26:09.693 : en:00:26:09.693
00:29:15.963 : en:00:29:15.963
00:31:10.285 : en:00:31:10.285
00:33:41.686 : en:00:33:41.686
00:35:09.524 : en:00:35:09.524
00:39:50.179 : en:00:39:50.179
00:45:35.733 : en:00:45:35.733
00:47:18.335 : en:00:47:18.335
00:50:24.104 : en:00:50:24.104
00:53:17.986 : en:00:53:17.986
00:55:40.420 : en:00:55:40.420
00:57:14.931 : en:00:57:14.931
00:59:21.808 : en:00:59:21.808
01:04:55.892 : en:01:04:55.892
01:09:23.701 : en:01:09:23.701
01:14:48.734 : en:01:14:48.734
01:18:18.485 : en:01:18:18.485
01:24:52.546 : en:01:24:52.546
01:27:16.440 : en:01:27:16.440
01:30:32.385 : en:01:30:32.385
01:32:33.923 : en:01:32:33.923
01:36:44.090 : en:01:36:44.090
01:41:16.070 : en:01:41:16.070
01:43:31.163 : en:01:43:31.163
01:46:38.058 : en:01:46:38.058
01:48:38.637 : en:01:48:38.637
01:53:41.940 : en:01:53:41.940
01:58:18.883 : en:01:58:18.883
02:02:14.661 : en:02:02:14.661
02:04:38.471 : en:02:04:38.471
02:05:11.170 : en:02:05:11.170
Люди Икс: Последняя битва / X-Men: The Last Stand
««На чьей стороне будешь ты?»»


Год выпуска: 2006
Страна: Канада, США, Великобритания
Жанр: фантастика, боевик, триллер, приключения

Продолжительность: 01:44:05
Перевод: Дублированный [Лицензия]
Субтитры: русские (Полные),
Режиссер: Бретт Рэтнер
В ролях:

Хью Джекман (Logan / Wolverine), Холли Берри (Ororo Munroe / Storm), Иэн МакКеллен (Erik Lehnsherr / Magneto), Фамке Янссен (Jean Grey / Phoenix), Келси Грэммер (Dr. Henry «Hank» McCoy / Beast), Шон Эшмор (Bobby Drake / Iceman), Аарон Стэнфорд (John Allerdyce / Pyro), Патрик Стюарт (Charles Xavier / Professor X), Бен Фостер (Warren Worthington III / Angel), Эллен Пейдж (Kitty Pryde / Shadowcat), Анна Пэкуин (Marie / Rogue), Джеймс Марсден (Scott Summers / Cyclops)
Описание:
Людям Икс, во главе с профессором Чарльзом Ксавьером, приходится вступить в битву с самой эволюцией в лице их воскресшего товарища по команде... Джин Грэй, возрожденная в облике Темного Феникса, представляет опасность не только для самой себя, но и для мутантов и для всей человеческой расы.
? Мировая премьера: 22 мая 2006

Качество: BDRip-AVC
Формат: MKV
Видео кодек: AVC
Аудио кодек: AC3
Видео: AVC, 1024x430 (2.40:1), 2263 kbps, 23,976 fps, 0,214 bpp
Аудио: AC3 / 5.1 / 48 kHz / 448 kbps /
Навигация по главам: есть
General
Unique ID : 175673518059190932996880518399908931460 (0x84297D27AC2AECE7AAE0D1C602546784)
Complete name : E:\Запись с тв\X-Men Antology 2000-2017 BDRip-AVC R.G.Generalfilm\X-Men The Last Stand.2006.BDRip-AVC.Rip.by.White Smoke.R.G.Generalfilm.mkv
Format : Matroska
Format version : Version 2
File size : 1.97 GiB
Duration : 1 h 44 min
Overall bit rate : 2 713 kb/s
Movie name : X-Men The Last Stand.2006.BDRip-AVC.Rip.by.White Smoke.R.G.Generalfilm.mkv
Encoded date : UTC 2018-07-12 13:45:14
Writing application : mkvmerge v7.6.0 ('Garden of Dreams') 32bit built on Feb 11 2015 00:18:47
Writing library : libebml v1.3.1 + libmatroska v1.4.2
Cover : Yes
Attachments : Cover.jpg

Video
ID : 1
Format : AVC
Format/Info : Advanced Video Codec
Format profile : High@L4.1
Format settings, CABAC : Yes
Format settings, ReFrames : 10 frames
Codec ID : V_MPEG4/ISO/AVC
Duration : 1 h 44 min
Bit rate : 2 263 kb/s
Width : 1 024 pixels
Height : 430 pixels
Display aspect ratio : 2.40:1
Frame rate mode : Constant
Frame rate : 23.976 (24000/1001) FPS
Color space : YUV
Chroma subsampling : 4:2:0
Bit depth : 8 bits
Scan type : Progressive
Bits/(Pixel*Frame) : 0.214
Stream size : 1.61 GiB (81%)
Writing library : x264 core 148 r2638 7599210
Encoding settings : cabac=1 / ref=10 / deblock=1:-2:-1 / analyse=0x3:0x113 / me=umh / subme=11 / psy=1 / psy_rd=0.00:0.15 / mixed_ref=1 / me_range=32 / chroma_me=1 / trellis=2 / 8x8dct=1 / cqm=0 / deadzone=21,11 / fast_pskip=0 / chroma_qp_offset=-3 / threads=6 / lookahead_threads=1 / sliced_threads=0 / nr=0 / decimate=0 / interlaced=0 / bluray_compat=0 / constrained_intra=0 / bframes=10 / b_pyramid=2 / b_adapt=2 / b_bias=0 / direct=1 / weightb=1 / open_gop=0 / weightp=2 / keyint=240 / keyint_min=23 / scenecut=40 / intra_refresh=0 / rc_lookahead=40 / rc=2pass / mbtree=1 / bitrate=2263 / ratetol=1.0 / qcomp=0.65 / qpmin=0 / qpmax=69 / qpstep=4 / cplxblur=20.0 / qblur=0.5 / vbv_maxrate=50000 / vbv_bufsize=65500 / nal_hrd=none / filler=0 / ip_ratio=1.40 / aq=1:1.00
Language : English
Default : Yes
Forced : No

Audio
ID : 2
Format : AC-3
Format/Info : Audio Coding 3
Mode extension : CM (complete main)
Format settings, Endianness : Big
Codec ID : A_AC3
Duration : 1 h 44 min
Bit rate mode : Constant
Bit rate : 448 kb/s
Channel(s) : 6 channels
Channel positions : Front: L C R, Side: L R, LFE
Sampling rate : 48.0 kHz
Frame rate : 31.250 FPS (1536 spf)
Compression mode : Lossy
Stream size : 334 MiB (17%)
Default : Yes
Forced : No

Text
ID : 3
Format : UTF-8
Codec ID : S_TEXT/UTF8
Codec ID/Info : UTF-8 Plain Text
Title : Полные
Language : Russian
Default : No
Forced : No

Menu
00:00:00.000 : en:Chapter 1
00:05:17.191 : en:Chapter 2
00:09:21.310 : en:Chapter 3
00:12:19.405 : en:Chapter 4
00:17:53.072 : en:Chapter 5
00:23:09.137 : en:Chapter 6
00:30:57.897 : en:Chapter 7
00:33:57.493 : en:Chapter 8
00:38:02.363 : en:Chapter 9
00:43:48.167 : en:Chapter 10
00:50:36.742 : en:Chapter 11
00:55:37.083 : en:Chapter 12
00:58:02.854 : en:Chapter 13
01:01:13.878 : en:Chapter 14
01:03:56.749 : en:Chapter 15
01:08:16.801 : en:Chapter 16
01:10:40.569 : en:Chapter 17
01:13:21.313 : en:Chapter 18
01:19:11.538 : en:Chapter 19
01:22:10.091 : en:Chapter 20
01:25:03.848 : en:Chapter 21
01:29:41.751 : en:Chapter 22
01:34:25.701 : en:Chapter 23
01:36:02.590 : en:Chapter 24
01:44:04.988 : en:Chapter 25
Люди Икс: Начало. Росомаха / X-Men Origins: Wolverine
««Узнай, с чего начиналась легенда»»


Год выпуска: 2009
Страна: США, Великобритания
Жанр: фантастика, боевик, триллер, приключения

Продолжительность: 01:47:21
Перевод: Дублированный [Лицензия]
Субтитры: русские (Форсированные),
русские (Полные),
Режиссер: Гэвин Худ
В ролях:

Хью Джекман (Logan), Лив Шрайбер (Victor Creed), Дэнни Хьюстон (Stryker), Уилл Ай Эм (John Wraith), Линн Коллинс (Kayla Silverfox), Кевин Дюран (Fred Dukes), Доминик Монахэн (Chris Bradley), Тейлор Китч (Remy LeBeau), Дэниэл Хэнни (Agent Zero), Райан Рейнольдс (Wade Wilson), Тим Пакок (Scott Summers), Джулия Блейк (Heather Hudson)
Описание:
Фильм рассказывает о неистовом и романтичном прошлом Росомахи, его сложных отношениях с Виктором Кридом и о зловещей программе Оружие Х. При этом Росомаха встречается со многими мутантами, уже знакомыми и новыми, и узнает несколько легенд о мире Людей Икс.
? Мировая премьера: 8 апреля 2009

Качество: BDRip-AVC
Формат: MKV
Видео кодек: AVC
Аудио кодек: AC3
Видео: AVC, 1024x426 (2.40:1), 1901 kbps, 23,976 fps, 0,182 bpp
Аудио: AC3 / 5.1 / 48 kHz / 448 kbps /
Навигация по главам: есть
General
Unique ID : 207146169770476593899831118518103765130 (0x9BD6E6AFF8A44B08A1193472769EF08A)
Complete name : E:\Запись с тв\X-Men Antology 2000-2017 BDRip-AVC R.G.Generalfilm\X-Men Origins Wolverine.2009.BDRip-AVC.Rip.by.White Smoke.R.G.Generalfilm.mkv
Format : Matroska
Format version : Version 2
File size : 1.76 GiB
Duration : 1 h 47 min
Overall bit rate : 2 351 kb/s
Movie name : X-Men Origins Wolverine.2009.BDRip-AVC.Rip.by.White Smoke.R.G.Generalfilm.mkv
Encoded date : UTC 2018-07-12 22:12:34
Writing application : mkvmerge v7.6.0 ('Garden of Dreams') 32bit built on Feb 11 2015 00:18:47
Writing library : libebml v1.3.1 + libmatroska v1.4.2
Cover : Yes
Attachments : cover.jpg

Video
ID : 1
Format : AVC
Format/Info : Advanced Video Codec
Format profile : High@L4.1
Format settings, CABAC : Yes
Format settings, ReFrames : 10 frames
Codec ID : V_MPEG4/ISO/AVC
Duration : 1 h 47 min
Bit rate : 1 901 kb/s
Width : 1 024 pixels
Height : 426 pixels
Display aspect ratio : 2.40:1
Frame rate mode : Constant
Frame rate : 23.976 (24000/1001) FPS
Color space : YUV
Chroma subsampling : 4:2:0
Bit depth : 8 bits
Scan type : Progressive
Bits/(Pixel*Frame) : 0.182
Stream size : 1.39 GiB (79%)
Writing library : x264 core 148 r2638 7599210
Encoding settings : cabac=1 / ref=10 / deblock=1:-2:-1 / analyse=0x3:0x113 / me=umh / subme=11 / psy=1 / psy_rd=0.00:0.15 / mixed_ref=1 / me_range=32 / chroma_me=1 / trellis=2 / 8x8dct=1 / cqm=0 / deadzone=21,11 / fast_pskip=0 / chroma_qp_offset=-3 / threads=6 / lookahead_threads=1 / sliced_threads=0 / nr=0 / decimate=0 / interlaced=0 / bluray_compat=0 / constrained_intra=0 / bframes=10 / b_pyramid=2 / b_adapt=2 / b_bias=0 / direct=1 / weightb=1 / open_gop=0 / weightp=2 / keyint=240 / keyint_min=24 / scenecut=40 / intra_refresh=0 / rc_lookahead=40 / rc=2pass / mbtree=1 / bitrate=1901 / ratetol=1.0 / qcomp=0.65 / qpmin=0 / qpmax=69 / qpstep=4 / cplxblur=20.0 / qblur=0.5 / vbv_maxrate=50000 / vbv_bufsize=65500 / nal_hrd=none / filler=0 / ip_ratio=1.40 / aq=1:1.00
Language : English
Default : Yes
Forced : No

Audio
ID : 2
Format : AC-3
Format/Info : Audio Coding 3
Mode extension : CM (complete main)
Format settings, Endianness : Big
Codec ID : A_AC3
Duration : 1 h 47 min
Bit rate mode : Constant
Bit rate : 448 kb/s
Channel(s) : 6 channels
Channel positions : Front: L C R, Side: L R, LFE
Sampling rate : 48.0 kHz
Frame rate : 31.250 FPS (1536 spf)
Compression mode : Lossy
Stream size : 344 MiB (19%)
Default : Yes
Forced : No

Text #1
ID : 3
Format : UTF-8
Codec ID : S_TEXT/UTF8
Codec ID/Info : UTF-8 Plain Text
Title : Форсированные
Language : Russian
Default : Yes
Forced : No

Text #2
ID : 4
Format : UTF-8
Codec ID : S_TEXT/UTF8
Codec ID/Info : UTF-8 Plain Text
Title : Полные
Language : Russian
Default : No
Forced : No

Menu
00:00:00.000 : :00:00:00.000
00:03:21.201 : :00:03:21.201
00:07:49.010 : :00:07:49.010
00:10:28.419 : :00:10:28.419
00:14:09.807 : :00:14:09.807
00:17:50.111 : :00:17:50.111
00:19:31.504 : :00:19:31.504
00:25:55.137 : :00:25:55.137
00:28:17.988 : :00:28:17.988
00:32:28.572 : :00:32:28.572
00:37:51.311 : :00:37:51.311
00:45:03.367 : :00:45:03.367
00:49:43.647 : :00:49:43.647
00:56:28.468 : :00:56:28.468
00:59:41.828 : :00:59:41.828
01:02:17.651 : :01:02:17.651
01:06:12.177 : :01:06:12.177
01:09:54.524 : :01:09:54.524
01:12:54.704 : :01:12:54.704
01:16:19.742 : :01:16:19.742
01:21:29.468 : :01:21:29.468
01:25:57.778 : :01:25:57.778
01:28:55.121 : :01:28:55.121
01:32:06.813 : :01:32:06.813
01:33:37.070 : :01:33:37.070
01:37:15.538 : :01:37:15.538
01:40:22.141 : :01:40:22.141
01:41:26.122 : :01:41:26.122
01:47:21.143 : :01:47:21.143
Люди Икс: Первый класс / X: First Class
««Стань свидетелем того, как изменится наш мир»»


Год выпуска: 2011
Страна: США, Великобритания
Жанр: фантастика, боевик, приключения

Продолжительность: 02:11:43
Перевод: Дублированный [Лицензия]
Субтитры: русские (Форсированные, R5),
русские (Полные, R5),
английские (Форсированные (SRT)),
Режиссер: Мэттью Вон
В ролях:

Джеймс МакЭвой (Charles Xavier (24 Years)), Лоуренс Белчер (Charles Xavier (12 Years)), Майкл Фассбендер (Erik Lensherr), Билл Милнер (Young Erik), Дженнифер Лоуренс (Raven / Mystique), Роуз Бирн (Moira MacTaggert), Николас Холт (Hank / Beast), Лукас Тилл (Alex Summers / Havok), Калеб Лэндри Джонс (Cassidy / Banshee), Кевин Бейкон (Sebastian Shaw), Джейсон Флеминг (Azazel), Оливер Платт (Man in Black Suit)
Описание:
Фильм расскажет о том, как сформировались профессор Ксавьер и Магнито, о процессе основания школы профессора для детей-мутантов и, наконец, о том, что же произошло между двумя закадычными друзьями и почему они расстались.
? Мировая премьера: 25 мая 2011

Качество: BDRip-AVC
Формат: MKV
Видео кодек: AVC
Аудио кодек: AC3
Видео: AVC, 1024x428 (2.40:1), 2200 kbps, 23,976 fps, 0,209 bpp
Аудио: AC3 / 5.1 / 48 kHz / 448 kbps /
Навигация по главам: есть
General
Unique ID : 208706180973439728771546804376344007705 (0x9D03592D911CECB1A0E177B6FDC91419)
Complete name : E:\Запись с тв\X-Men Antology 2000-2017 BDRip-AVC R.G.Generalfilm\X-Men.First.Class.2011.BDRip-AVC.Rip.by.White Smoke.R.G.Generalfilm.mkv
Format : Matroska
Format version : Version 2
File size : 2.44 GiB
Duration : 2 h 11 min
Overall bit rate : 2 651 kb/s
Movie name : X-Men.First.Class.2011.BDRip-AVC.Rip.by.White Smoke.R.G.Generalfilm.mkv
Encoded date : UTC 2018-07-14 17:27:31
Writing application : mkvmerge v7.6.0 ('Garden of Dreams') 32bit built on Feb 11 2015 00:18:47
Writing library : libebml v1.3.1 + libmatroska v1.4.2
Cover : Yes
Attachments : cover.png

Video
ID : 1
Format : AVC
Format/Info : Advanced Video Codec
Format profile : High@L4.1
Format settings, CABAC : Yes
Format settings, ReFrames : 10 frames
Codec ID : V_MPEG4/ISO/AVC
Duration : 2 h 11 min
Bit rate : 2 200 kb/s
Width : 1 024 pixels
Height : 428 pixels
Display aspect ratio : 2.40:1
Frame rate mode : Constant
Frame rate : 23.976 (24000/1001) FPS
Color space : YUV
Chroma subsampling : 4:2:0
Bit depth : 8 bits
Scan type : Progressive
Bits/(Pixel*Frame) : 0.209
Stream size : 1.98 GiB (81%)
Writing library : x264 core 148 r2638 7599210
Encoding settings : cabac=1 / ref=10 / deblock=1:-2:-1 / analyse=0x3:0x113 / me=umh / subme=11 / psy=1 / psy_rd=0.00:0.15 / mixed_ref=1 / me_range=32 / chroma_me=1 / trellis=2 / 8x8dct=1 / cqm=0 / deadzone=21,11 / fast_pskip=0 / chroma_qp_offset=-3 / threads=6 / lookahead_threads=1 / sliced_threads=0 / nr=0 / decimate=0 / interlaced=0 / bluray_compat=0 / constrained_intra=0 / bframes=10 / b_pyramid=2 / b_adapt=2 / b_bias=0 / direct=1 / weightb=1 / open_gop=0 / weightp=2 / keyint=240 / keyint_min=23 / scenecut=40 / intra_refresh=0 / rc_lookahead=40 / rc=2pass / mbtree=1 / bitrate=2200 / ratetol=1.0 / qcomp=0.65 / qpmin=0 / qpmax=69 / qpstep=4 / cplxblur=20.0 / qblur=0.5 / vbv_maxrate=50000 / vbv_bufsize=65500 / nal_hrd=none / filler=0 / ip_ratio=1.40 / aq=1:1.00
Language : English
Default : Yes
Forced : No

Audio
ID : 2
Format : AC-3
Format/Info : Audio Coding 3
Mode extension : CM (complete main)
Format settings, Endianness : Big
Codec ID : A_AC3
Duration : 2 h 11 min
Bit rate mode : Constant
Bit rate : 448 kb/s
Channel(s) : 6 channels
Channel positions : Front: L C R, Side: L R, LFE
Sampling rate : 48.0 kHz
Frame rate : 31.250 FPS (1536 spf)
Compression mode : Lossy
Stream size : 422 MiB (17%)
Default : Yes
Forced : No

Text #1
ID : 3
Format : UTF-8
Codec ID : S_TEXT/UTF8
Codec ID/Info : UTF-8 Plain Text
Title : Форсированные, R5
Language : Russian
Default : Yes
Forced : No

Text #2
ID : 4
Format : UTF-8
Codec ID : S_TEXT/UTF8
Codec ID/Info : UTF-8 Plain Text
Title : Полные, R5
Language : Russian
Default : No
Forced : No

Text #3
ID : 5
Format : UTF-8
Codec ID : S_TEXT/UTF8
Codec ID/Info : UTF-8 Plain Text
Title : Форсированные (SRT)
Language : English
Default : No
Forced : No

Menu
00:00:00.000 : en:00:00:00.000
00:04:21.553 : en:00:04:21.553
00:09:33.156 : en:00:09:33.156
00:14:03.426 : en:00:14:03.426
00:16:08.176 : en:00:16:08.176
00:22:10.829 : en:00:22:10.829
00:27:11.046 : en:00:27:11.046
00:28:46.350 : en:00:28:46.350
00:31:32.891 : en:00:31:32.891
00:36:07.540 : en:00:36:07.540
00:40:12.660 : en:00:40:12.660
00:44:16.487 : en:00:44:16.487
00:50:05.753 : en:00:50:05.753
00:54:00.863 : en:00:54:00.863
01:01:07.414 : en:01:01:07.414
01:08:17.927 : en:01:08:17.927
01:11:51.098 : en:01:11:51.098
01:14:06.525 : en:01:14:06.525
01:20:07.052 : en:01:20:07.052
01:23:43.226 : en:01:23:43.226
01:27:35.834 : en:01:27:35.834
01:28:51.243 : en:01:28:51.243
01:31:24.979 : en:01:31:24.979
01:33:33.900 : en:01:33:33.900
01:37:54.410 : en:01:37:54.410
01:39:55.197 : en:01:39:55.197
01:43:37.962 : en:01:43:37.962
01:47:44.166 : en:01:47:44.166
01:52:38.460 : en:01:52:38.460
01:56:44.623 : en:01:56:44.623
02:01:26.696 : en:02:01:26.696
02:04:24.248 : en:02:04:24.248
Росомаха: Бессмертный / The.Wolverine.Extended.Cut
««When he's most vulnerable, he's most dangerous»»


Год выпуска: 2013
Страна: США, Великобритания, Австралия, Япония
Жанр: фантастика, боевик, триллер, приключения

Продолжительность: 02:18:05
Перевод: Дублированный [Лицензия]
Субтитры: русские (Форсированные),
русские (Полные),
Режиссер: Джеймс Мэнголд
В ролях:

Хью Джекман (Logan), Тао Окамото (Mariko), Рила Фукусима (Yukio), Хироюки Санада (Shingen), Светлана Ходченкова (Viper), Брайан Ти (Noburo), Харукико Яманоути (Yashida), Уилл Юн Ли (Harada), Кэн Ямамура (Young Yashida), Фамке Янссен (Jean Grey), Нобутака Аояги (Security), Сейдзи Фунамото (Servant)
Описание:
Новая глава приключений Росомахи развернётся в Японии, где Логану предстоит выяснить, что острее - когти Росомахи или меч Серебряного Самурая.
? Мировая премьера: 16 июля 2013

Качество: BDRip-AVC
Формат: MKV
Видео кодек: AVC
Аудио кодек: AC3
Видео: AVC, 1024x430 (2.40:1), 1600 kbps, 23,976 fps, 0,152 bpp
Аудио: AC3 / 5.1 / 48 kHz / 448 kbps /
Навигация по главам: есть
General
Unique ID : 199286246376356947437499240514381808397 (0x95ED228B6ECC8815928DA9DBB8CA030D)
Complete name : E:\Запись с тв\X-Men Antology 2000-2017 BDRip-AVC R.G.Generalfilm\The.Wolverine.2013.Extended.Cut.BDRip-AVC.Rip.by.White Smoke.R.G.Generalfilm.mkv
Format : Matroska
Format version : Version 2
File size : 1.98 GiB
Duration : 2 h 18 min
Overall bit rate : 2 049 kb/s
Movie name : The.Wolverine.2013.Extended.Cut.BDRip-AVC.Rip.by.White Smoke.R.G.Generalfilm.mkv
Encoded date : UTC 2018-07-16 02:34:38
Writing application : mkvmerge v7.6.0 ('Garden of Dreams') 32bit built on Feb 11 2015 00:18:47
Writing library : libebml v1.3.1 + libmatroska v1.4.2
Cover : Yes
Attachments : cover.jpg

Video
ID : 1
Format : AVC
Format/Info : Advanced Video Codec
Format profile : High@L4.1
Format settings, CABAC : Yes
Format settings, ReFrames : 10 frames
Codec ID : V_MPEG4/ISO/AVC
Duration : 2 h 18 min
Bit rate : 1 600 kb/s
Width : 1 024 pixels
Height : 430 pixels
Display aspect ratio : 2.40:1
Frame rate mode : Constant
Frame rate : 23.976 (24000/1001) FPS
Color space : YUV
Chroma subsampling : 4:2:0
Bit depth : 8 bits
Scan type : Progressive
Bits/(Pixel*Frame) : 0.152
Stream size : 1.50 GiB (76%)
Writing library : x264 core 148 r2638 7599210
Encoding settings : cabac=1 / ref=10 / deblock=1:-2:-1 / analyse=0x3:0x113 / me=umh / subme=11 / psy=1 / psy_rd=0.00:0.15 / mixed_ref=1 / me_range=32 / chroma_me=1 / trellis=2 / 8x8dct=1 / cqm=0 / deadzone=21,11 / fast_pskip=0 / chroma_qp_offset=-3 / threads=6 / lookahead_threads=1 / sliced_threads=0 / nr=0 / decimate=0 / interlaced=0 / bluray_compat=0 / constrained_intra=0 / bframes=10 / b_pyramid=2 / b_adapt=2 / b_bias=0 / direct=1 / weightb=1 / open_gop=0 / weightp=2 / keyint=240 / keyint_min=23 / scenecut=40 / intra_refresh=0 / rc_lookahead=40 / rc=2pass / mbtree=1 / bitrate=1600 / ratetol=1.0 / qcomp=0.65 / qpmin=0 / qpmax=69 / qpstep=4 / cplxblur=20.0 / qblur=0.5 / vbv_maxrate=50000 / vbv_bufsize=65500 / nal_hrd=none / filler=0 / ip_ratio=1.40 / aq=1:1.00
Language : English
Default : Yes
Forced : No

Audio
ID : 2
Format : AC-3
Format/Info : Audio Coding 3
Mode extension : CM (complete main)
Format settings, Endianness : Big
Codec ID : A_AC3
Duration : 2 h 18 min
Bit rate mode : Constant
Bit rate : 448 kb/s
Channel(s) : 6 channels
Channel positions : Front: L C R, Side: L R, LFE
Sampling rate : 48.0 kHz
Frame rate : 31.250 FPS (1536 spf)
Compression mode : Lossy
Stream size : 442 MiB (22%)
Default : Yes
Forced : No

Text #1
ID : 3
Format : UTF-8
Codec ID : S_TEXT/UTF8
Codec ID/Info : UTF-8 Plain Text
Title : Форсированные
Language : Russian
Default : Yes
Forced : No

Text #2
ID : 4
Format : UTF-8
Codec ID : S_TEXT/UTF8
Codec ID/Info : UTF-8 Plain Text
Title : Полные
Language : Russian
Default : No
Forced : No

Menu
00:00:00.000 : en:00:00:00.000
00:05:03.720 : en:00:05:03.720
00:07:39.793 : en:00:07:39.793
00:08:40.562 : en:00:08:40.562
00:10:24.374 : en:00:10:24.374
00:13:55.668 : en:00:13:55.668
00:16:48.174 : en:00:16:48.174
00:20:32.648 : en:00:20:32.648
00:23:36.498 : en:00:23:36.498
00:29:13.585 : en:00:29:13.585
00:33:42.771 : en:00:33:42.771
00:35:14.779 : en:00:35:14.779
00:38:36.522 : en:00:38:36.522
00:43:04.957 : en:00:43:04.957
00:47:55.080 : en:00:47:55.080
00:49:31.844 : en:00:49:31.844
00:52:23.098 : en:00:52:23.098
00:59:32.318 : en:00:59:32.318
01:01:31.354 : en:01:01:31.354
01:07:00.516 : en:01:07:00.516
01:13:10.261 : en:01:13:10.261
01:18:52.227 : en:01:18:52.227
01:23:40.473 : en:01:23:40.473
01:26:47.160 : en:01:26:47.160
01:29:50.927 : en:01:29:50.927
01:35:19.380 : en:01:35:19.380
01:38:28.194 : en:01:38:28.194
01:41:43.639 : en:01:41:43.639
01:48:33.006 : en:01:48:33.006
01:52:05.969 : en:01:52:05.969
01:54:56.264 : en:01:54:56.264
01:58:03.493 : en:01:58:03.493
02:03:01.999 : en:02:03:01.999
02:04:57.406 : en:02:04:57.406
02:07:46.700 : en:02:07:46.700
02:09:17.374 : en:02:09:17.374
Люди Икс: Дни минувшего будущего / X-Men: Days of Future Past The Rogue Cut
««His past. Our future»»


Год выпуска: 2014
Страна: США, Великобритания, Канада
Жанр: фантастика, боевик, триллер, приключения

Продолжительность: 02:28:45
Перевод: Дублированный [Лицензия]
Субтитры: (форсированные),
русские (Полные),
Режиссер: Брайан Сингер
В ролях:

Хью Джекман (Logan / Wolverine), Джеймс МакЭвой (Charles Xavier), Майкл Фассбендер (Erik Lehnsherr), Дженнифер Лоуренс (Raven / Mystique), Николас Холт (Hank / Beast), Холли Берри (Storm), Эллен Пейдж (Kitty Pryde), Питер Динклэйдж (Dr. Bolivar Trask), Иэн МакКеллен (Magneto), Патрик Стюарт (Professor X), Джош Хелман (Maj. Bill Stryker), Эван Питерс (Peter / Quicksilver)
Описание:
В недалёком будущем мутанты близки к истреблению роботами-охотниками на мутантов Стражами. Единственная надежда для мутантов выжить - предотвратить череду роковых событий, приведших к появлению Стражей. С помощью своих способностей, Китти Прайд перемещает сознание Росомахи в его молодое тело в 1973 год. В прошлом всё оказывается не так радужно: молодой Профессор Икс окончательно разочарован в своих идеях, Магнето содержится в тюрьме глубоко под землёй, а человечество не знает как реагировать на широкое появление мутантов...
Мировая премьера: 10 мая 2014

Качество: BDRip-AVC
Формат: MKV
Видео кодек: AVC
Аудио кодек: AC3
Видео: AVC, 1024x428 (2.40:1), 1757 kbps, 23,976 fps, 0,167 bpp
Аудио: AC3 / 5.1 / 48 kHz / 448 kbps /
Навигация по главам: есть
General
Unique ID : 204081439427994097242535881063273855117 (0x9988A7D0BC4FC56EB8F986AA5373F88D)
Complete name : E:\Запись с тв\X-Men Antology 2000-2017 BDRip-AVC R.G.Generalfilm\X-Men Days of Future Past 2014 The Rogue Cut BDRip-AVC.Rip.by.White Smoke.R.G.Generalfilm.mkv
Format : Matroska
Format version : Version 2
File size : 2.29 GiB
Duration : 2 h 28 min
Overall bit rate : 2 207 kb/s
Movie name : X-Men Days of Future Past 2014 The Rogue Cut BDRip-AVC.Rip.by.White Smoke.R.G.Generalfilm.mkv
Encoded date : UTC 2018-07-17 11:01:17
Writing application : mkvmerge v7.6.0 ('Garden of Dreams') 32bit built on Feb 11 2015 00:18:47
Writing library : libebml v1.3.1 + libmatroska v1.4.2
Cover : Yes
Attachments : cover.jpg

Video
ID : 1
Format : AVC
Format/Info : Advanced Video Codec
Format profile : High@L4.1
Format settings, CABAC : Yes
Format settings, ReFrames : 10 frames
Codec ID : V_MPEG4/ISO/AVC
Duration : 2 h 28 min
Bit rate : 1 757 kb/s
Width : 1 024 pixels
Height : 428 pixels
Display aspect ratio : 2.40:1
Frame rate mode : Constant
Frame rate : 23.976 (24000/1001) FPS
Color space : YUV
Chroma subsampling : 4:2:0
Bit depth : 8 bits
Scan type : Progressive
Bits/(Pixel*Frame) : 0.167
Stream size : 1.78 GiB (78%)
Writing library : x264 core 148 r2638 7599210
Encoding settings : cabac=1 / ref=10 / deblock=1:-2:-1 / analyse=0x3:0x113 / me=umh / subme=11 / psy=1 / psy_rd=0.00:0.15 / mixed_ref=1 / me_range=32 / chroma_me=1 / trellis=2 / 8x8dct=1 / cqm=0 / deadzone=21,11 / fast_pskip=0 / chroma_qp_offset=-3 / threads=6 / lookahead_threads=1 / sliced_threads=0 / nr=0 / decimate=0 / interlaced=0 / bluray_compat=0 / constrained_intra=0 / bframes=10 / b_pyramid=2 / b_adapt=2 / b_bias=0 / direct=1 / weightb=1 / open_gop=0 / weightp=2 / keyint=240 / keyint_min=23 / scenecut=40 / intra_refresh=0 / rc_lookahead=40 / rc=2pass / mbtree=1 / bitrate=1757 / ratetol=1.0 / qcomp=0.65 / qpmin=0 / qpmax=69 / qpstep=4 / cplxblur=20.0 / qblur=0.5 / vbv_maxrate=50000 / vbv_bufsize=65500 / nal_hrd=none / filler=0 / ip_ratio=1.40 / aq=1:1.00
Language : English
Default : Yes
Forced : No

Audio
ID : 2
Format : AC-3
Format/Info : Audio Coding 3
Mode extension : CM (complete main)
Format settings, Endianness : Big
Codec ID : A_AC3
Duration : 2 h 28 min
Bit rate mode : Constant
Bit rate : 448 kb/s
Channel(s) : 6 channels
Channel positions : Front: L C R, Side: L R, LFE
Sampling rate : 48.0 kHz
Frame rate : 31.250 FPS (1536 spf)
Compression mode : Lossy
Stream size : 477 MiB (20%)
Default : Yes
Forced : No

Text #1
ID : 3
Format : UTF-8
Codec ID : S_TEXT/UTF8
Codec ID/Info : UTF-8 Plain Text
Title : форсированные
Default : Yes
Forced : No

Text #2
ID : 4
Format : UTF-8
Codec ID : S_TEXT/UTF8
Codec ID/Info : UTF-8 Plain Text
Title : Полные
Language : Russian
Default : No
Forced : No

Menu
00:00:00.000 : en:00:00:00.000
00:03:33.338 : en:00:03:33.338
00:08:04.734 : en:00:08:04.734
00:10:34.217 : en:00:10:34.217
00:15:11.410 : en:00:15:11.410
00:18:44.248 : en:00:18:44.248
00:22:43.529 : en:00:22:43.529
00:24:38.769 : en:00:24:38.769
00:29:05.619 : en:00:29:05.619
00:33:03.440 : en:00:33:03.440
00:37:11.896 : en:00:37:11.896
00:38:49.827 : en:00:38:49.827
00:41:06.923 : en:00:41:06.923
00:43:50.336 : en:00:43:50.336
00:50:05.377 : en:00:50:05.377
00:52:07.082 : en:00:52:07.082
00:55:11.391 : en:00:55:11.391
00:57:56.348 : en:00:57:56.348
01:01:04.661 : en:01:01:04.661
01:04:01.421 : en:01:04:01.421
01:06:39.829 : en:01:06:39.829
01:10:22.802 : en:01:10:22.802
01:13:00.459 : en:01:13:00.459
01:16:28.334 : en:01:16:28.334
01:18:48.724 : en:01:18:48.724
01:20:44.590 : en:01:20:44.590
01:22:46.962 : en:01:22:46.962
01:28:07.574 : en:01:28:07.574
01:31:19.057 : en:01:31:19.057
01:33:50.958 : en:01:33:50.958
01:39:22.373 : en:01:39:22.373
01:42:10.291 : en:01:42:10.291
01:44:32.016 : en:01:44:32.016
01:49:13.547 : en:01:49:13.547
01:51:00.862 : en:01:51:00.862
01:54:54.304 : en:01:54:54.304
01:59:15.940 : en:01:59:15.940
02:02:13.743 : en:02:02:13.743
02:04:30.504 : en:02:04:30.504
02:08:16.230 : en:02:08:16.230
02:13:27.583 : en:02:13:27.583
02:16:57.250 : en:02:16:57.250
02:19:19.809 : en:02:19:19.809
02:27:34.011 : en:02:27:34.011
Люди Икс: Апокалипсис / X-Men: Apocalypse
««Выживет сильнейший»»


Год выпуска: 2016
Страна: США
Жанр: фантастика, боевик, приключения

Продолжительность: 02:23:56
Перевод: Дублированный [Лицензия]
Субтитры: русские (форсированные),
русские (Полные),
Режиссер: Брайан Сингер
В ролях:

Джеймс МакЭвой (Professor Charles Xavier), Майкл Фассбендер (Erik Lehnsherr / Magneto), Дженнифер Лоуренс (Raven / Mystique), Николас Холт (Hank McCoy / Beast), Оскар Айзек (En Sabah Nur / Apocalypse), Роуз Бирн (Moira Mactaggert), Эван Питерс (Peter Maximoff / Quicksilver), Джош Хелман (Col. William Stryker), Софи Тернер (Jean Grey), Тай Шеридан (Scott Summers / Cyclops), Лукас Тилл (Alex Summers / Havok), Коди Смит-МакФи (Kurt Wagner / Nightcrawler)
Описание:
События «Дней Минувшего Будущего» оказали колоссальное влияние на мир, где мутанты и люди борются за свое место под Солнцем. В это нелегкое время Людям Икс предстоит столкнуться со своим самым опасным противником - древним мутантом Апокалипсисом, существом, схватка с которым может стать последней не только для мутантов, но и в принципе для всего человечества. В поисках способа победы над неуязвимым и бессмертным монстром Людям Икс предстоит узнать больше о происхождении своего вида. Но Апокалипсис неимоверно силен, и вероятность победы все уменьшается, ведь он твердо убежден, что только сильнейшие имеют право на выживание...
Мировая премьера: 9 мая 2016

Качество: BDRip-AVC
Формат: MKV
Видео кодек: AVC
Аудио кодек: AC3
Видео: AVC, 1024x428 (2.40:1), 1905 kbps, 23,976 fps, 0,181 bpp
Аудио: AC3 / 5.1 / 48 kHz / 448 kbps /
Навигация по главам: есть
General
Unique ID : 199455071799608487638266577380958611847 (0x960DA647DA2843C78D2A5C8116C92987)
Complete name : E:\Запись с тв\X-Men Antology 2000-2017 BDRip-AVC R.G.Generalfilm\X-Men Apocalypse.2016.BDRip-AVC.Rip.by.White Smoke.R.G.Generalfilm.mkv
Format : Matroska
Format version : Version 2
File size : 2.37 GiB
Duration : 2 h 23 min
Overall bit rate : 2 355 kb/s
Movie name : X-Men Apocalypse.2016.BDRip-AVC.Rip.by.White Smoke.R.G.Generalfilm.mkv
Encoded date : UTC 2018-07-20 14:23:31
Writing application : mkvmerge v7.6.0 ('Garden of Dreams') 32bit built on Feb 11 2015 00:18:47
Writing library : libebml v1.3.1 + libmatroska v1.4.2
Cover : Yes
Attachments : cover.jpg

Video
ID : 1
Format : AVC
Format/Info : Advanced Video Codec
Format profile : High@L4.1
Format settings, CABAC : Yes
Format settings, ReFrames : 10 frames
Codec ID : V_MPEG4/ISO/AVC
Duration : 2 h 23 min
Bit rate : 1 905 kb/s
Width : 1 024 pixels
Height : 428 pixels
Display aspect ratio : 2.40:1
Frame rate mode : Constant
Frame rate : 23.976 (24000/1001) FPS
Color space : YUV
Chroma subsampling : 4:2:0
Bit depth : 8 bits
Scan type : Progressive
Bits/(Pixel*Frame) : 0.181
Stream size : 1.87 GiB (79%)
Writing library : x264 core 148 r2638 7599210
Encoding settings : cabac=1 / ref=10 / deblock=1:-2:-1 / analyse=0x3:0x113 / me=umh / subme=11 / psy=1 / psy_rd=0.00:0.15 / mixed_ref=1 / me_range=32 / chroma_me=1 / trellis=2 / 8x8dct=1 / cqm=0 / deadzone=21,11 / fast_pskip=0 / chroma_qp_offset=-3 / threads=6 / lookahead_threads=1 / sliced_threads=0 / nr=0 / decimate=0 / interlaced=0 / bluray_compat=0 / constrained_intra=0 / bframes=10 / b_pyramid=2 / b_adapt=2 / b_bias=0 / direct=1 / weightb=1 / open_gop=0 / weightp=2 / keyint=240 / keyint_min=23 / scenecut=40 / intra_refresh=0 / rc_lookahead=40 / rc=2pass / mbtree=1 / bitrate=1905 / ratetol=1.0 / qcomp=0.65 / qpmin=0 / qpmax=69 / qpstep=4 / cplxblur=20.0 / qblur=0.5 / vbv_maxrate=50000 / vbv_bufsize=65500 / nal_hrd=none / filler=0 / ip_ratio=1.40 / aq=1:1.00
Language : English
Default : Yes
Forced : No

Audio
ID : 2
Format : AC-3
Format/Info : Audio Coding 3
Mode extension : CM (complete main)
Format settings, Endianness : Big
Codec ID : A_AC3
Duration : 2 h 23 min
Bit rate mode : Constant
Bit rate : 448 kb/s
Channel(s) : 6 channels
Channel positions : Front: L C R, Side: L R, LFE
Sampling rate : 48.0 kHz
Frame rate : 31.250 FPS (1536 spf)
Compression mode : Lossy
Stream size : 461 MiB (19%)
Default : Yes
Forced : No

Text #1
ID : 3
Format : UTF-8
Codec ID : S_TEXT/UTF8
Codec ID/Info : UTF-8 Plain Text
Title : forced
Language : Russian
Default : Yes
Forced : No

Text #2
ID : 4
Format : UTF-8
Codec ID : S_TEXT/UTF8
Codec ID/Info : UTF-8 Plain Text
Title : Полные
Language : Russian
Default : No
Forced : No

Menu
00:00:00.000 : en:Chapter 01
00:08:18.790 : en:Chapter 02
00:14:13.186 : en:Chapter 03
00:18:07.086 : en:Chapter 04
00:24:55.494 : en:Chapter 05
00:30:45.343 : en:Chapter 06
00:36:35.235 : en:Chapter 07
00:41:00.083 : en:Chapter 08
00:45:56.504 : en:Chapter 09
00:49:24.295 : en:Chapter 10
00:55:22.611 : en:Chapter 11
00:59:36.823 : en:Chapter 12
01:04:43.671 : en:Chapter 13
01:12:35.851 : en:Chapter 14
01:17:32.898 : en:Chapter 15
01:22:18.517 : en:Chapter 16
01:27:45.594 : en:Chapter 17
01:34:05.807 : en:Chapter 18
01:36:46.634 : en:Chapter 19
01:39:50.902 : en:Chapter 20
01:43:34.375 : en:Chapter 21
01:49:57.382 : en:Chapter 22
01:55:08.360 : en:Chapter 23
01:57:21.660 : en:Chapter 24
02:03:50.548 : en:Chapter 25
02:07:56.711 : en:Chapter 26
02:10:59.101 : en:Chapter 27
02:12:54.091 : en:Chapter 28
Логан / Logan
««Его время пришло»»


Год выпуска: 2017
Страна: США
Жанр: фантастика, боевик, триллер, драма

Продолжительность: 02:17:23
Перевод: Дублированный [Лицензия]
Субтитры: русские (форсированные),
русские (Полные),
Режиссер: Джеймс Мэнголд
В ролях:

Хью Джекман (Logan / X-24), Патрик Стюарт (Charles), Дафни Кин (Laura), Бойд Холбрук (Pierce), Стивен Мерчант (Caliban), Элизабет Родригес (Gabriela), Ричард Э. Грант (Dr. Rice), Эрик Ла Салль (Will Munson), Элиз Нил (Kathryn Munson), Куинси Фаус (Nate Munson), Аль Коронел (Federale Commander), Фрэнк Гальегос (Federale Lieutenant)
Описание:
В недалеком будущем уставший от жизни Логан заботится о больном профессоре Икс, который прячется неподалеку от мексиканской границы. Но Логан больше не сможет скрывать свое прошлое, когда встретится с юным мутантом, которого преследуют темные силы.
Мировая премьера: 17 февраля 2017

Качество: BDRip-AVC
Формат: MKV
Видео кодек: AVC
Аудио кодек: AC3
Видео: AVC, 1024x428 (2.40:1), 1474 kbps, 23,976 fps, 0,140 bpp
Аудио: AC3 / 5.1 / 48 kHz / 448 kbps /
Навигация по главам: есть
General
Unique ID : 208044332284468553360884869078124543284 (0x9C83E184AC245454B09F514D02973D34)
Complete name : E:\Запись с тв\X-Men Antology 2000-2017 BDRip-AVC R.G.Generalfilm\Logan.2017.BDRip-AVC.Rip.by.White Smoke.R.G.Generalfilm.mkv
Format : Matroska
Format version : Version 2
File size : 1.85 GiB
Duration : 2 h 17 min
Overall bit rate : 1 923 kb/s
Movie name : Logan.2017.BDRip-AVC.Rip.by.White Smoke.R.G.Generalfilm.mkv
Encoded date : UTC 2018-07-22 13:33:16
Writing application : mkvmerge v7.6.0 ('Garden of Dreams') 32bit built on Feb 11 2015 00:18:47
Writing library : libebml v1.3.1 + libmatroska v1.4.2
Cover : Yes
Attachments : cover.jpg

Video
ID : 1
Format : AVC
Format/Info : Advanced Video Codec
Format profile : High@L4.1
Format settings, CABAC : Yes
Format settings, ReFrames : 10 frames
Codec ID : V_MPEG4/ISO/AVC
Duration : 2 h 17 min
Bit rate : 1 474 kb/s
Width : 1 024 pixels
Height : 428 pixels
Display aspect ratio : 2.40:1
Frame rate mode : Constant
Frame rate : 23.976 (24000/1001) FPS
Color space : YUV
Chroma subsampling : 4:2:0
Bit depth : 8 bits
Scan type : Progressive
Bits/(Pixel*Frame) : 0.140
Stream size : 1.38 GiB (75%)
Writing library : x264 core 148 r2638 7599210
Encoding settings : cabac=1 / ref=10 / deblock=1:-2:-1 / analyse=0x3:0x113 / me=umh / subme=11 / psy=1 / psy_rd=0.00:0.15 / mixed_ref=1 / me_range=32 / chroma_me=1 / trellis=2 / 8x8dct=1 / cqm=0 / deadzone=21,11 / fast_pskip=0 / chroma_qp_offset=-3 / threads=6 / lookahead_threads=1 / sliced_threads=0 / nr=0 / decimate=0 / interlaced=0 / bluray_compat=0 / constrained_intra=0 / bframes=10 / b_pyramid=2 / b_adapt=2 / b_bias=0 / direct=1 / weightb=1 / open_gop=0 / weightp=2 / keyint=240 / keyint_min=23 / scenecut=40 / intra_refresh=0 / rc_lookahead=40 / rc=2pass / mbtree=1 / bitrate=1474 / ratetol=1.0 / qcomp=0.65 / qpmin=0 / qpmax=69 / qpstep=4 / cplxblur=20.0 / qblur=0.5 / vbv_maxrate=50000 / vbv_bufsize=65500 / nal_hrd=none / filler=0 / ip_ratio=1.40 / aq=1:1.00
Language : English
Default : Yes
Forced : No

Audio
ID : 2
Format : AC-3
Format/Info : Audio Coding 3
Mode extension : CM (complete main)
Format settings, Endianness : Big
Codec ID : A_AC3
Duration : 2 h 17 min
Bit rate mode : Constant
Bit rate : 448 kb/s
Channel(s) : 6 channels
Channel positions : Front: L C R, Side: L R, LFE
Sampling rate : 48.0 kHz
Frame rate : 31.250 FPS (1536 spf)
Compression mode : Lossy
Stream size : 440 MiB (23%)
Default : Yes
Forced : No

Text #1
ID : 3
Format : UTF-8
Codec ID : S_TEXT/UTF8
Codec ID/Info : UTF-8 Plain Text
Title : Forced
Language : Russian
Default : Yes
Forced : No

Text #2
ID : 4
Format : UTF-8
Codec ID : S_TEXT/UTF8
Codec ID/Info : UTF-8 Plain Text
Title : Full
Language : Russian
Default : No
Forced : No

Menu
00:00:00.000 : en:00:00:00.000
00:05:35.126 : en:00:05:35.126
00:09:18.558 : en:00:09:18.558
00:11:41.159 : en:00:11:41.159
00:16:23.232 : en:00:16:23.232
00:20:11.669 : en:00:20:11.669
00:24:26.715 : en:00:24:26.715
00:26:11.904 : en:00:26:11.904
00:30:13.311 : en:00:30:13.311
00:31:59.126 : en:00:31:59.126
00:34:56.886 : en:00:34:56.886
00:39:53.433 : en:00:39:53.433
00:42:55.573 : en:00:42:55.573
00:45:03.826 : en:00:45:03.826
00:47:53.412 : en:00:47:53.412
00:49:39.560 : en:00:49:39.560
00:52:14.423 : en:00:52:14.423
00:54:30.517 : en:00:54:30.517
00:57:44.211 : en:00:57:44.211
01:00:10.398 : en:01:00:10.398
01:03:53.830 : en:01:03:53.830
01:06:55.511 : en:01:06:55.511
01:09:54.774 : en:01:09:54.774
01:13:15.891 : en:01:13:15.891
01:18:43.594 : en:01:18:43.594
01:21:50.906 : en:01:21:50.906
01:25:52.189 : en:01:25:52.189
01:28:38.813 : en:01:28:38.813
01:32:41.431 : en:01:32:41.431
01:35:29.724 : en:01:35:29.724
01:41:03.432 : en:01:41:03.432
01:43:39.880 : en:01:43:39.880
01:49:38.989 : en:01:49:38.989
01:54:20.562 : en:01:54:20.562
01:57:00.430 : en:01:57:00.430
01:59:20.403 : en:01:59:20.403
02:01:14.434 : en:02:01:14.434
02:05:09.627 : en:02:05:09.627
02:06:40.551 : en:02:06:40.551
02:11:07.860 : en:02:11:07.860
pb.wtf



Скачать Люди Икс : Антология через торрент http://interhit.org/img/2018-05/27/95e0rpzgd7ieqwngygkarjw3v.gif Скачать фильм Люди Икс : Антология через торрент бесплантно в хорошем качестве Описание: Они - дети атомного века, сверхлюди, новое звено в цепи эволюции. Каждый из них был рождён в результате уникальной генетической ... 10 10 17
Info! Золотая раздача, скачанное не засчитывается.
Торрент: Зарегистрирован [2018-07-24 12:36] · скачан: 268 раз
Статус: √ проверено
Размер: 17.84 GB
Как cкачать? Как скачать Люди Икс : Антология через торрент | qTorrent



Последний раз редактировалось: White Smoke (2018-07-24 12:36), всего редактировалось 3 раз(а)

28-11-2019 20:33  

Отключить всю рекламу на сайте

23-07-2018 14:34 Люди Икс : Антология Скачать торрент  

Отлично! Давно собирался посмотреть. pb.wtf



23-07-2018 16:31 Люди Икс : Антология Скачать торрент  

23-07-2018 20:23 Люди Икс : Антология Скачать торрент  

апокалипсис-только английская дорожка!pb.wtf



24-07-2018 12:38 Люди Икс : Антология Скачать торрент  

раздача обновлена заменена дорожка на Люди Икс: Апокалипсис / X-Men: Apocalypse 2016 приношу свои извиненияpb.wtf



24-07-2018 14:25 Люди Икс : Антология Скачать торрент  

FullHD 60fps будет такой сборник выпускаться?pb.wtf



24-07-2018 15:50 Люди Икс : Антология Скачать торрент  

h1n1, от меня точно нетpb.wtf



24-07-2018 19:23 Люди Икс : Антология Скачать торрент  

White Smoke писал(а):

раздача обновлена заменена дорожка на Люди Икс: Апокалипсис / X-Men: Apocalypse 2016 приношу свои извинения

хорошо! спасибо вам!pb.wtf



    Дорогой пользователь! Огромная просьба, поблагодарите релизера, оцените раздачу и оставьте свои комментарий, если Вы скачали Люди Икс : Антология через торрент бесплатно! Внесите свою лепту в развитие PiratBit!
    Комментировать посты могут только пользователи прошедшие не сложную регистрацию
    Показать сообщения:    

    Люди Икс : Антология через торрент
    Скачать бесплатно Люди Икс : Антология
    Люди Икс : Антология скачать торрент
    Люди Икс : Антология смотреть онлайн
    Cкачать фильм Люди Икс : Антология бесплатно
    Люди Икс : Антология скачать торрент в хорошем качестве
    Люди Икс : Антология смотреть онлайн бесплатно в хорошем качестве


    Вы не можете начинать темы
    Вы не можете отвечать на сообщения
    Вы не можете редактировать свои сообщения
    Вы не можете удалять свои сообщения
    Вы не можете голосовать в опросах
    Вы не можете прикреплять файлы к сообщениям
    Вы можете скачивать файлы