Ссылка на приватное зеркало всего за 1$. Внимание количество ограничено!!!

OK

1+1

iTunes

мы

OK

1

WEB-DLRip

Джокер

Пифагор

Ведьмак / The Witcher сериал

Лицензия

ПШазам

ОК

Оно 2

iTunes

30
pack

Вам бонус

ВАЖНО

!!Акция!!

Alien_RageХит недели

RePack

Resident Evil 21

ИГРА 18+

pack

RePack

jed

RePack

fifa19

RePack

Assassins Creed: Odyssey

RePack

NEED FOR SPEED™ PAYBACK

4 сезон

9 сезон

Бесстыжие 9 сезон

Все сериалы

все сериалы на PB.wtf

RePack

FAR CRY 5
  

Тайная жизнь насекомых / Drôles de petites bêtes (Арно Бурон, Антун Крингс) [2017 г., Мультфильм, семейный, WEB-DLRip, Дубляж Чистый звук] pb.wtf

Тайная жизнь насекомых через торрент pb.wtf

Размер: 1.37 GB | Добавлен: 1 год 5 мес. назад | Торрент скачан:176 раз
Скачать  

23-07-2018 14:15 Тайная жизнь насекомых Скачать торрент  

Тайная жизнь насекомых / Drôles de petites bêtes
Год выпуска: 2017
Страна: Франция, Люксембург
Жанр: Мультфильм, семейный
Продолжительность: 01:28:48
Перевод: Дубляж Чистый звук

Режиссер: Арно Бурон, Антун Крингс

rating

Описание: Данный мультфильм, это увлекательная, приключенческая история для всей семьи от французских кинорежиссеров о тайной жизни насекомых в прекрасном мире цветов, трав и других растений. У каждого из них, своя особая роль и свой путь, если присмотреться, жизнь бурлит под каждым листиком и травинкой, все живое движется по неписанным правилам и законам. Вот уже много лет, королева-пчела Маргарита возглавляет королевство, ее коварная кузина Югетт пытается захватить Влacть, обычная жизнь насекомых превращается в настоящий кошмар, кузнечик по имени Аполлон, спешит на помощь королеве..

Качество: WEB-DLRip
Формат: AVI
Видео кодек: XviD
Аудио кодек: AC3
Видео: XviD, 720x384 , 23.9fps, 1811 Kbps
Аудио#1: AC3 , 2 ch , 48 kHz , 384 kbps
скриншот  скриншот  скриншот  скриншот  

Общее
Полное имя : D:\korsar.tv\Tayna.zhyzn.nasikomish.2O18.D.WEB-DLRip.14OOMB.avi
Формат : AVI
Формат/Информация : Audio Video Interleave
Размер файла : 1,37 Гбайт
Продолжительность : 1 ч. 28 м.
Общий поток : 2204 Кбит/сек
Программа кодирования : VirtualDubMod 1.5.10.2 (build 2540/release)
Библиотека кодирования : VirtualDubMod build 2540/release

Видео
Идентификатор : 0
Формат : MPEG-4 Visual
Профиль формата : Advanced Simple@L5
Параметр BVOP формата : 2
Параметр QPel формата : Нет
Параметр GMC формата : Без точки перехода
Параметр матрицы формата : Выборочная
Идентификатор кодека : XVID
Идентификатор кодека/Подсказка : XviD
Продолжительность : 1 ч. 28 м.
Битрейт : 1811 Кбит/сек
Ширина : 720 пикселей
Высота : 384 пикселя
Соотношение сторон : 1,85:1
Частота кадров : 23,976 кадра/сек
Цветовое пространство : YUV
Субдискретизация насыщенности : 4:2:0
Битовая глубина : 8 бит
Тип развёртки : Прогрессивная
Метод сжатия : С потерями
Бит/(Пиксели*Кадры) : 0.273
Размер потока : 1,12 Гбайт (82%)
Библиотека кодирования : XviD 1.2.1 (UTC 2008-12-04)

Аудио
Идентификатор : 1
Формат : AC-3
Формат/Информация : Audio Coding 3
Расширение режима : CM (complete main)
Параметр Endianness формата : Big
Идентификатор кодека : 2000
Продолжительность : 1 ч. 28 м.
Вид битрейта : Постоянный
Битрейт : 384 Кбит/сек
Каналы : 2 канала
Расположение каналов : Front: L R
Частота : 48,0 КГц
Битовая глубина : 16 бит
Метод сжатия : С потерями
Размер потока : 244 Мбайт (17%)
Выравнивание : Разделение по промежуткам
Продолжительность промежутка : 42 мс. (1,00 видеокадр)
Время предзагрузки промежутка : 500 мс.

pb.wtf



Скачать Тайная жизнь насекомых через торрент https://b.radikal.ru/b29/1807/b8/1966d60c42d3.jpg Скачать фильм Тайная жизнь насекомых через торрент бесплантно в хорошем качестве Описание: Данный мультфильм, это увлекательная, приключенческая история для всей семьи от французских кинорежиссеров о тайной жизни ... 10 10 7
Торрент: Зарегистрирован [2018-07-23 14:15] · скачан: 176 раз
Статус: T временная
Размер: 1.37 GB
Как cкачать? Как скачать Тайная жизнь насекомых через торрент | qTorrent

% Раздел Тема Автор DL S | L
Иностранные мультфильмы [ 1.46 GB ] Тайная жизнь насекомых / Drôles de petites bêtes [2017 мультфильм WEBRip] 2x[Dub] killermax2013 Скачать
1 | 0
T Фильмы (мультфильмы) cо спонсором показа (Новинки AVI/MKV) [ 3.51 GB ] Тайная жизнь насекомых / Drôles de petites bêtes [2017 мультфильм WEB-DL 1080p] DUB | Чистый звук lic007 Скачать
1 | 0


Последний раз редактировалось: Скорпион1976 (2018-07-24 13:40), всего редактировалось 13 раз(а)

28-11-2019 20:33  

Отключить всю рекламу на сайте

23-07-2018 15:02 Тайная жизнь насекомых Скачать торрент  

Топик был перенесен из форума Иностранные мультфильмы в форум Фильмы cо спонсором показа (Новинки AVI/MKV)


schultzpb.wtf



    Дорогой пользователь! Огромная просьба, поблагодарите релизера, оцените раздачу и оставьте свои комментарий, если Вы скачали Тайная жизнь насекомых через торрент бесплатно! Внесите свою лепту в развитие PiratBit!
    Комментировать посты могут только пользователи прошедшие не сложную регистрацию
    Показать сообщения:    

    Тайная жизнь насекомых через торрент
    Скачать бесплатно Тайная жизнь насекомых
    Тайная жизнь насекомых скачать торрент
    Тайная жизнь насекомых смотреть онлайн
    Cкачать фильм Тайная жизнь насекомых бесплатно
    Тайная жизнь насекомых скачать торрент в хорошем качестве
    Тайная жизнь насекомых смотреть онлайн бесплатно в хорошем качестве


    Вы не можете начинать темы
    Вы не можете отвечать на сообщения
    Вы не можете редактировать свои сообщения
    Вы не можете удалять свои сообщения
    Вы не можете голосовать в опросах
    Вы не можете прикреплять файлы к сообщениям
    Вы можете скачивать файлы