Ссылка на приватное зеркало нашего сайта всего за 1$. Внимание количество ограничено!!!

2 сезон

iTunes

1 сезон

1

iTunes

iTunes

iTunes

1 сезон

RePack

30

ИГРА 18+

pack

ВАЖНО

!!Акция!!

Alien_RageХит недели

RePack

MK11
pack

Забери бонус

RePack

jed

!!Акция!!

Alien_Rage

RePack

fifa19

RePack

Assassins Creed: Odyssey

RePack

NEED FOR SPEED™ PAYBACK

4 сезон

9 сезон

Бесстыжие 9 сезон

Все сериалы

все сериалы на PB.wtf

RePack

FAR CRY 5
  

Новый человек / Сезон: 1 / Серии: 1-17 из 17 (Артем Насыбулин) [2018, комедия, мелодрама, WEB-DL 1080p] pb.wtf

Новый человек через торрент pb.wtf

Размер: 15.41 GB | Добавлен: 2 года 2 мес. назад | Торрент скачан:19 раз
Скачать  

24-07-2018 04:23 Новый человек Скачать торрент  

Новый человек
Год выпуска: 2018
Страна: Россия
Жанр: комедия, мелодрама
Продолжительность: ~00:25:00 серия
Субтитры: отсутствуют

Режиссер: Артем Насыбулин



В ролях:

Владимир Епифанцев, Максим Виторган, Татьяна Арнтгольц, Виталий Егоров, Олег Масленников-Войтов, Елена Бирюкова, Тимур Еремеев, Анастасия Пучкина, Валентина Ляпина, Виктория Полторак, Александра Скачкова

Описание:

Саша - самовлюбленный сорокалетний спортсмен. Звезда хоккея, который из-за собственного характера в одночасье теряет все: деньги, славу, уважение. Более того, узнает, что мать его детей уходит к его лучшему другу. Но даже такие сокрушительные обстоятельства не могут сломить волю Саши к победе. Однако теперь он меняет тактику. Чтобы вернуть привычную жизнь, решает на время притвориться чутким, добрым и отзывчивым. Становится последователем и официальным лицом таинственного движения «Новый человек». Поначалу поведение Саши – притворство, дурной спектакль, который легко раскрывают окружающие. Но чем глубже Саша вживается в роль «нового человека», тем более непредсказуемой оказывается его жизнь.

Качество: WEB-DL 1080p
Формат: MKV

Видео: MPEG4 AVC Video, H264, 16:9, 1920x1080, 25 fps, ~5100 kbps, 0.099 bit/pixel
Аудио: 48.0 kHz, AC3 Dolby Digital, 2/0 (L,R) ch, ~ 192 kbps
скриншот   скриншот   скриншот   скриншот   скриншот  

General
Unique ID : 172652722504482732553705033676320046763 (0x81E3B46F6B8DEEE287C45E7432427EAB)
Complete name : D:\Novyi.chelovek.2018.WEB-DL.(1080p).Getty\Novyi.chelovek.e01.2018.WEB-DL.(1080p).Getty.mkv
Format : Matroska
Format version : Version 4 / Version 2
File size : 963 MiB
Duration : 25 min 22 s
Overall bit rate : 5 307 kb/s
Movie name : Novyi.chelovek.e01.2018.WEB-DL.(1080p).Getty
Encoded date : UTC 2018-07-23 09:35:39
Writing application : mkvmerge v7.8.0 ('River Man') 32bit built on Mar 27 2015 16:18:02
Writing library : libebml v1.3.1 + libmatroska v1.4.2

Video
ID : 1
Format : AVC
Format/Info : Advanced Video Codec
Format profile : High@L4
Format settings : CABAC / 4 Ref Frames
Format settings, CABAC : Yes
Format settings, ReFrames : 4 frames
Codec ID : V_MPEG4/ISO/AVC
Duration : 25 min 22 s
Bit rate : 5 114 kb/s
Width : 1 920 pixels
Height : 1 080 pixels
Display aspect ratio : 16:9
Frame rate mode : Constant
Frame rate : 25.000 FPS
Color space : YUV
Chroma subsampling : 4:2:0
Bit depth : 8 bits
Scan type : Progressive
Bits/(Pixel*Frame) : 0.099
Stream size : 928 MiB (96%)
Default : Yes
Forced : No

Audio
ID : 2
Format : AC-3
Format/Info : Audio Coding 3
Codec ID : A_AC3
Duration : 25 min 22 s
Bit rate mode : Constant
Bit rate : 192 kb/s
Channel(s) : 2 channels
Channel positions : Front: L R
Sampling rate : 48.0 kHz
Frame rate : 31.250 FPS (1536 SPF)
Bit depth : 16 bits
Compression mode : Lossy
Stream size : 34.8 MiB (4%)
Service kind : Complete Main
Default : Yes
Forced : No

Раздача ведётся путём добавления новых серий, при каждом добавлении создаётся новый торрент. Чтобы начать докачку новой серии, пользователям необходимо сделать следующее:

- Остановить скачивание.
- Удалить старый торрент у себя из клиента (старые серии удалять не надо).
- Скачать новый торрент и запустить его у себя в клиенте вместо старого, при этом указать клиенту путь в старую папку куда и должно происходить скачивание новых серий.

Ваш клиент при этом должен произвести хеширование (проверку) старой папки (если не производит сам - помогите ему сделать это), и будет докачивать только те серии которых у вас ещё нет. Старые серии при этом не удаляются, а продолжают раздаваться!
Если вы уже удалили старые серии, то предотвратить повторную закачку старых серий можно, отжав галочку в соответствующих местах при запуске нового торрента. По возможности, желательно не удалять старые серии как можно дольше, чтобы релизер не столько продолжал раздавать старые серии, а смог сконцентрироваться на новых.
pb.wtf



Скачать Новый человек через торрент https://i104.fastpic.ru/big/2018/0723/11/0e6ea3cb502a1492ef70f4b47f80f111.jpg Скачать фильм Новый человек через торрент бесплантно в хорошем качестве Описание: Саша - самовлюбленный сорокалетний спортсмен. Звезда хоккея, который из-за собственного характера в одночасье теряет все: деньги, ... 10 10 5
Торрент: Зарегистрирован [2018-08-14 02:54] · скачан: 19 раз
Статус: √ проверено
Размер: 15.41 GB
Как cкачать? Как скачать Новый человек через торрент | qTorrent

% Раздел Тема Автор DL S | L
Наши сериалы [ 5.2 GB ] Новый человек / Сезон: 1 / Серии: 1-17 из 17 [2018 WEB-DLRip-AVC] bober100 Скачать
1 | 0
Наши сериалы [ 9.27 GB ] Новый человек / Сезон: 1 / Серии: 1-17 из 17 [2018 WEB-DL 720p] bober100 Скачать
1 | 0
Наши сериалы [ 5.37 GB ] Новый человек / Сезон: 1 / Серии: 1-17 из 17 [2018 WEB-DLRip] bober100 Скачать
1 | 0

28-11-2019 20:33  

Отключить всю рекламу на сайте

    Дорогой пользователь! Огромная просьба, поблагодарите релизера, оцените раздачу и оставьте свои комментарий, если Вы скачали Новый человек через торрент бесплатно! Внесите свою лепту в развитие PiratBit!
    Комментировать посты могут только пользователи прошедшие не сложную регистрацию
    Показать сообщения:    

    Новый человек через торрент
    Скачать бесплатно Новый человек
    Новый человек скачать торрент
    Новый человек смотреть онлайн
    Cкачать фильм Новый человек бесплатно
    Новый человек скачать торрент в хорошем качестве
    Новый человек смотреть онлайн бесплатно в хорошем качестве


    Вы не можете начинать темы
    Вы не можете отвечать на сообщения
    Вы не можете редактировать свои сообщения
    Вы не можете удалять свои сообщения
    Вы не можете голосовать в опросах
    Вы не можете прикреплять файлы к сообщениям
    Вы можете скачивать файлы