Ссылка на приватное зеркало всего за 1$. Внимание количество ограничено!!!

OK

1+1

iTunes

мы

OK

1

WEB-DLRip

Джокер

Пифагор

Ведьмак / The Witcher сериал

iTunes

ПШазам

ОК

Оно 2

iTunes

30
pack

Вам бонус

ВАЖНО

!!Акция!!

Alien_RageХит недели

RePack

Resident Evil 21

ИГРА 18+

pack

RePack

jed

RePack

fifa19

RePack

Assassins Creed: Odyssey

RePack

NEED FOR SPEED™ PAYBACK

4 сезон

9 сезон

Бесстыжие 9 сезон

Все сериалы

все сериалы на PB.wtf

RePack

FAR CRY 5
  

Тайная жизнь насекомых / Drôles de petites bêtes (Арно Бурон, Антун Крингс) [2017 г., мультфильм, семейный, WEB-DL 1080p] DUB | Чистый звук pb.wtf

Тайная жизнь насекомых через торрент pb.wtf

Размер: 3.51 GB | Добавлен: 1 год 6 мес. назад | Торрент скачан:161 раз
Скачать  

24-07-2018 05:50 Тайная жизнь насекомых Скачать торрент  

Тайная жизнь насекомых / Drôles de petites bêtes
Год выхода: 2017
Страна: Франция, Люксембург
Жанр: мультфильм, семейный
Продолжительность: 01:28:48
Перевод: Профессиональный (полное дублирование) | Чистый звук
Субтитры: Отсутствуют

Режиссер: Арно Бурон, Антун Крингс
В ролях: Райан Николлс


Описание: Добро пожаловать в мир букашек: здесь у каждого - своя роль, все движется по своим правилам и законам, бурлит жизнь, полная взлетов и падений, радостей и печалей. Если заглянуть под листик или отодвинуть травинку, можно узнать все секреты таинственного мира насекомых. Надо лишь чуть-чуть напрячь воображение...

Качество: WEB-DL 1080p
Формат: mkv
Видео кодек: AVC
Аудио кодек: AC3
Видео: 1908x1028, 23.976 fps, 5 167 Kbps
Аудио: 384 kb/s, 2 ch, 48.0 KHz


СЕМПЛ
General
Unique ID : 193166652577839345282638358836273960823 (0x91528B4693BB08319214E5C2B41F5777)
Complete name : D:\КИНО\МУЛЬТЫ\Tayna.zhyzn.nasikomish.2O18.D.WEB-DL.1O8Op.mkv
Format : Matroska
Format version : Version 2
File size : 3.51 GiB
Duration : 1h 28mn
Overall bit rate mode : Variable
Overall bit rate : 5 664 Kbps
Encoded date : UTC 2018-07-22 00:54:23
Writing application : mkvmerge v8.3.0 ('Over the Horizon') 64bit
Writing library : libebml v1.3.1 + libmatroska v1.4.2
DURATION : 01:28:48.073000000
NUMBER_OF_FRAMES : 127746
NUMBER_OF_BYTES : 3515047511
_STATISTICS_WRITING_APP : mkvmerge v8.3.0 ('Over the Horizon') 64bit
_STATISTICS_WRITING_DATE_UTC : 2018-07-22 00:54:23
_STATISTICS_TAGS : BPS DURATION NUMBER_OF_FRAMES NUMBER_OF_BYTES

Video
ID : 2
Format : AVC
Format/Info : Advanced Video Codec
Format profile : High@L4.1
Format settings, CABAC : Yes
Format settings, ReFrames : 4 frames
Codec ID : V_MPEG4/ISO/AVC
Duration : 1h 28mn
Bit rate mode : Variable
Bit rate : 5 167 Kbps
Maximum bit rate : 5 900 Kbps
Width : 1 908 pixels
Height : 1 028 pixels
Display aspect ratio : 1.85:1
Frame rate mode : Constant
Frame rate : 23.976 fps
Standard : Component
Color space : YUV
Chroma subsampling : 4:2:0
Bit depth : 8 bits
Scan type : Progressive
Bits/(Pixel*Frame) : 0.110
Stream size : 3.20 GiB (91%)
Default : Yes
Forced : No
Color range : Limited
Color primaries : BT.709
Transfer characteristics : BT.709
Matrix coefficients : BT.709

Audio
ID : 1
Format : AC-3
Format/Info : Audio Coding 3
Mode extension : CM (complete main)
Format settings, Endianness : Big
Codec ID : A_AC3
Duration : 1h 28mn
Bit rate mode : Constant
Bit rate : 384 Kbps
Channel(s) : 2 channels
Channel positions : Front: L R
Sampling rate : 48.0 KHz
Bit depth : 16 bits
Compression mode : Lossy
Stream size : 244 MiB (7%)
Default : Yes
Forced : No
скриншот   скриншот   скриншот  
Есть реклама!pb.wtf



Скачать Тайная жизнь насекомых через торрент http://pic1.kartinco.top/images/11/b4vq1.jpg Скачать фильм Тайная жизнь насекомых через торрент бесплантно в хорошем качестве Описание: Добро пожаловать в мир букашек: здесь у каждого - своя роль, все движется по своим правилам и законам, бурлит жизнь, полная ... 10 10 3
Торрент: Зарегистрирован [2018-07-24 05:50] · скачан: 161 раз
Статус: T временная
Размер: 3.51 GB
Как cкачать? Как скачать Тайная жизнь насекомых через торрент | qTorrent

28-11-2019 20:33  

Отключить всю рекламу на сайте

    Дорогой пользователь! Огромная просьба, поблагодарите релизера, оцените раздачу и оставьте свои комментарий, если Вы скачали Тайная жизнь насекомых через торрент бесплатно! Внесите свою лепту в развитие PiratBit!
    Комментировать посты могут только пользователи прошедшие не сложную регистрацию
    Показать сообщения:    

    Тайная жизнь насекомых через торрент
    Скачать бесплатно Тайная жизнь насекомых
    Тайная жизнь насекомых скачать торрент
    Тайная жизнь насекомых смотреть онлайн
    Cкачать фильм Тайная жизнь насекомых бесплатно
    Тайная жизнь насекомых скачать торрент в хорошем качестве
    Тайная жизнь насекомых смотреть онлайн бесплатно в хорошем качестве


    Вы не можете начинать темы
    Вы не можете отвечать на сообщения
    Вы не можете редактировать свои сообщения
    Вы не можете удалять свои сообщения
    Вы не можете голосовать в опросах
    Вы не можете прикреплять файлы к сообщениям
    Вы можете скачивать файлы