2 сезон

iTunes

1 сезон

1

iTunes

iTunes

iTunes

1 сезон

RePack

30

ИГРА 18+

pack

ВАЖНО

!!Акция!!

Alien_RageХит недели

RePack

MK11
pack

Забери бонус

RePack

jed

!!Акция!!

Alien_Rage

RePack

fifa19

RePack

Assassins Creed: Odyssey

RePack

NEED FOR SPEED™ PAYBACK

4 сезон

9 сезон

Бесстыжие 9 сезон

Все сериалы

все сериалы на PB.wtf

RePack

FAR CRY 5
  

Алхимик. Эликсир Фауста / Серии: 1-12 из 12 (Александр Муратов) [2014, детектив, мелодрама, мистика, HDTVRip-AVC] pb.wtf

Алхимик. Эликсир Фауста через торрент pb.wtf

Размер: 9.53 GB | Добавлен: 2 года 2 мес. назад | Торрент скачан:122 раза
Скачать  

24-07-2018 06:02 Алхимик. Эликсир Фауста Скачать торрент  

Алхимик. Эликсир Фауста

Год выпуска: 2014
Страна: Россия | Киностудия "Фаворит-фильм"
Жанр: детектив, мелодрама, мистика
Продолжительность: 00:53:00
Субтитры: нет
Режиссёр: Александр Муратов

В ролях: Игорь Петренко, Артём Ткаченко, Виктор Раков, Светлана Иванова, Евгения Добровольская, Андрей Ильин, Юрий Беляев, Павел Баршак, Елена Радевич, Борис Щербаков, Сергей Степанченко, Юлия Рутберг, Татьяна Абрамова, Александр Сирин, Владимир Ерёмин, Фёдор Лавров, Артём Фадеев, Кирилл Жандаров, Владимир Коренев, Игорь Ясулович, Николай Добрынин, Борис Химичев, Алексей Шейнин, Юрий Мосейчук, Павел Меленчук, Вячеслав Жолобов, Евгений Миллер, Евгений Данчевский, Анжела Кораблёва, Святослав Астрамович, Валентина Шендрикова, Сергей Антонов , Александр Хмельницкий
Описание:
1916 год. Профессор Александр Невельский, занимаясь алхимией, получает Эликсир Фауста, позволяющий людям бесконечно продлевать свою жизнь. Английский разведчик Освальд Рейнер убивает Невельского и похищает все его записи и флакон с эликсиром. В свою очередь его любовница, горничная «Астории», крадет у Рейнера этот флакон. В 1983 году умирает сын профессора - Сергей Невельский, перед кончиной рассказав своему сыну Андрею про открытие деда. Одновременно к Андрею наведывается Марк Терентьев, сын той самой горничной из «Астории». После ранений на войне Терентьев испробовал на себе целебную силу эликсира и теперь срочно нуждается в его новой порции.

Качество: HDTVRip-AVC
Формат: MKV
Видео кодек: H.264
Аудио кодек: AC3
Видео: MPEG4 Video (H264), 1024x576, 25fps,2000 Kbps,bit/pixel 0.118
Аудио : AC3 48000Hz, stereo, 192 kbps,2 ch
Общее
Уникальный идентификатор : 242244565941692607042590122309016740815 (0xB63E9B392D9B98978A8315A09AC1E3CF)
Полное имя : F:\Алхимик\01 серия_Алхимик_rip by_Aleksan55.mkv
Формат : Matroska
Версия формата : Version 2
Размер файла : 834 Мбайт
Продолжительность : 53 м. 10 с.
Общий поток : 2194 Кбит/сек
Дата кодирования : UTC 2018-07-23 21:37:09
Программа кодирования : mkvmerge v7.8.0 ('River Man') 32bit built on Apr 3 2015 12:11:22
Библиотека кодирования : libebml v1.3.1 + libmatroska v1.4.2

Видео
Идентификатор : 1
Формат : AVC
Формат/Информация : Advanced Video Codec
Профиль формата : High@L4.1
Параметр CABAC формата : Да
Параметр ReFrames формата : 14 кадров
Идентификатор кодека : V_MPEG4/ISO/AVC
Продолжительность : 53 м. 10 с.
Битрейт : 2000 Кбит/сек
Ширина : 1024 пикселя
Высота : 576 пикселей
Соотношение сторон : 16:9
Режим частоты кадров : Постоянный
Частота кадров : 25,000 кадров/сек
Цветовое пространство : YUV
Субдискретизация насыщенности : 4:2:0
Битовая глубина : 8 бит
Тип развёртки : Прогрессивная
Бит/(Пиксели*Кадры) : 0.136
Размер потока : 745 Мбайт (89%)
Библиотека кодирования : x264 core 146 r2538 121396c
Настройки программы : cabac=1 / ref=14 / deblock=1:-1:-1 / analyse=0x3:0x133 / me=umh / subme=9 / psy=1 / psy_rd=1.00:0.15 / mixed_ref=0 / me_range=32 / chroma_me=1 / trellis=2 / 8x8dct=1 / cqm=0 / deadzone=21,11 / fast_pskip=1 / chroma_qp_offset=-3 / threads=12 / lookahead_threads=1 / sliced_threads=0 / nr=0 / decimate=0 / interlaced=0 / bluray_compat=0 / constrained_intra=0 / bframes=14 / b_pyramid=2 / b_adapt=1 / b_bias=0 / direct=3 / weightb=1 / open_gop=0 / weightp=2 / keyint=250 / keyint_min=25 / scenecut=40 / intra_refresh=0 / rc_lookahead=40 / rc=2pass / mbtree=1 / bitrate=2000 / ratetol=1.0 / qcomp=0.60 / qpmin=0 / qpmax=39 / qpstep=4 / cplxblur=20.0 / qblur=0.5 / ip_ratio=1.40 / aq=1:1.20
Default : Да
Forced : Нет
Цветовой диапазон : Limited
Основные цвета : BT.709
Характеристики трансфера : BT.709
Коэффициенты матрицы : BT.709

Аудио
Идентификатор : 2
Формат : AC-3
Формат/Информация : Audio Coding 3
Расширение режима : CM (complete main)
Параметр Endianness формата : Big
Идентификатор кодека : A_AC3
Продолжительность : 53 м. 10 с.
Вид битрейта : Постоянный
Битрейт : 192 Кбит/сек
Каналы : 2 канала
Расположение каналов : Front: L R
Частота : 48,0 КГц
Частота кадров : 31,250 кадров/сек (1536 spf)
Битовая глубина : 16 бит
Метод сжатия : С потерями
Размер потока : 73,0 Мбайт (9%)
Default : Да
Forced : Нет
Внимание! Раздача ведётся путём добавления новых серий; при каждом добавлении создаётся новый торрент.
Чтобы начать докачку новой серии, пользователям необходимо сделать следующее:
1. Остановить скачивание;
2. Удалить старый торрент у себя из клиента (старые серии удалять не надо);
3. Скачать новый торрент и запустить его у себя в клиенте вместо старого, при этом указать клиенту путь в старую папку куда и должно происходить скачивание новых серий. Ваш клиент при этом должен произвести хеширование (проверку) старой папки и будет докачивать только те серии, которых у вас ещё нет. Старые серии при этом не удаляются, а продолжают раздаваться! Eсли вы уже удалили старые серии, то предотвратить повторную закачку старых серий можно, отжав галочку в соответствующих местах при запуске нового торрента.
Добавлены 11-12 серия.pb.wtf



Скачать Алхимик. Эликсир Фауста через торрент https://i105.fastpic.ru/big/2018/0721/9c/3824ea09747a8dc85bfa2777207c589c.png Скачать фильм Алхимик. Эликсир Фауста через торрент бесплантно в хорошем качестве Описание:1916 год. Профессор Александр Невельский, занимаясь алхимией, получает Эликсир Фауста, позволяющий людям бесконечно продлевать ... 9.4 10 10
Info! Золотая раздача, скачанное не засчитывается.
Торрент: Зарегистрирован [2018-08-01 04:32] · скачан: 122 раз
Статус: √ проверено
Размер: 9.53 GB
Как cкачать? Как скачать Алхимик. Эликсир Фауста через торрент | qTorrent

% Раздел Тема Автор DL S | L
Наши сериалы [ 8.69 GB ] Алхимик. Эликсир Фауста / Сезон: 1 / Серии: 1-12 из 12 [2015 HDTVRip] bober100 Скачать
2 | 0
Наши сериалы [ 28.28 GB ] Алхимик. Эликсир Фауста / Сезон: 1 / Серии: 1-12 из 12 [2015 HDTV 1080i] bober100 Скачать
1 | 0
Наши сериалы [ 16.04 GB ] Алхимик. Эликсир Фауста / Сезон: 1 / Серии: 1-12 из 12 [2015 HDTVRip 720p] bober100 Скачать
1 | 0
Наши сериалы [ 7.84 GB ] Алхимик. Эликсир Фауста / Сезон: 1 / Серии: 1-12 из 12 [2015 SATRip-AVC] bober100 Скачать
1 | 0
Наши сериалы [ 6.99 GB ] Алхимик ) [2015 SATRip] Assasinca Скачать
1 | 0


Последний раз редактировалось: aleksan55 (2018-08-01 04:32), всего редактировалось 2 раз(а)

28-11-2019 20:33  

Отключить всю рекламу на сайте

31-07-2018 04:27 Алхимик. Эликсир Фауста Скачать торрент  

продолжение то будет?pb.wtf



    Дорогой пользователь! Огромная просьба, поблагодарите релизера, оцените раздачу и оставьте свои комментарий, если Вы скачали Алхимик. Эликсир Фауста через торрент бесплатно! Внесите свою лепту в развитие PiratBit!
    Комментировать посты могут только пользователи прошедшие не сложную регистрацию
    Показать сообщения:    

    Алхимик. Эликсир Фауста через торрент
    Скачать бесплатно Алхимик. Эликсир Фауста
    Алхимик. Эликсир Фауста скачать торрент
    Алхимик. Эликсир Фауста смотреть онлайн
    Cкачать фильм Алхимик. Эликсир Фауста бесплатно
    Алхимик. Эликсир Фауста скачать торрент в хорошем качестве
    Алхимик. Эликсир Фауста смотреть онлайн бесплатно в хорошем качестве


    Вы не можете начинать темы
    Вы не можете отвечать на сообщения
    Вы не можете редактировать свои сообщения
    Вы не можете удалять свои сообщения
    Вы не можете голосовать в опросах
    Вы не можете прикреплять файлы к сообщениям
    Вы можете скачивать файлы