Ссылка на приватное зеркало всего за 1$. Внимание количество ограничено!!!

OK

1+1

iTunes

мы

OK

1

WEB-DLRip

Джокер

Пифагор

Ведьмак / The Witcher сериал

Лицензия

ПШазам

ОК

Оно 2

iTunes

30
pack

Вам бонус

ВАЖНО

!!Акция!!

Alien_RageХит недели

RePack

Resident Evil 21

ИГРА 18+

pack

RePack

jed

RePack

fifa19

RePack

Assassins Creed: Odyssey

RePack

NEED FOR SPEED™ PAYBACK

4 сезон

9 сезон

Бесстыжие 9 сезон

Все сериалы

все сериалы на PB.wtf

RePack

FAR CRY 5
  

Войны бессмертных / The Immortal Wars (Джо Луян) [2018 г., боевик, WEB-DLRip] любительский многоголосый [@MUZOBOZ@] pb.wtf

Войны бессмертных через торрент pb.wtf

Раздают: 1 [ 0 KB/s ]
Размер: 1.37 GB | Добавлен: 1 год 5 мес. назад | Торрент скачан:324 раза
Скачать  

24-07-2018 08:29 Войны бессмертных Скачать торрент  

Войны бессмертных / The Immortal Wars
Год выпуска: 2018
Страна: США
Жанр: боевик
Продолжительность: 01:36:04
Перевод: Любительский многоголосый [@MUZOBOZ@]

Режиссер: Джо Луян
В ролях: Эрик Робертс, Том Сайзмор, Билл Оберст мл., Шон Жерардо, Джеки Герхарди, Тейлор Килгор, Линдси Крус, Марк Энтони Джастис, Джеймс Бахм, Кристина Буэнавентура

Описание: В постапокалиптическом мире, разделённом на несколько супер-государств, правящая элита каждый год проводит смертельный турнир между девиантами - новой расой, получившей сверхспособности в результате облучения. Олив - первый девиант десятой категории за всю историю турнира, решает предпринять попытку разорвать порочный круг и уничтожить систему угнетения при поддержке других девиантов.

Качество: WEB-DLRip
Формат: AVI
Видео: Xvid 720x304 23.976fps 1 642 Kbps
Аудио : Dolby AC3 48000Hz 2ch 384kbps


СЕМПЛ
General
Complete name : D:\КИНО\Шлакк\The Immortal Wars.2018.P.WEB-DLRip.14OOMB_KOSHARA.avi
Format : AVI
Format/Info : Audio Video Interleave
File size : 1.37 GiB
Duration : 1h 36mn
Overall bit rate : 2 035 Kbps
Writing application : VirtualDubMod 1.5.10.2 (build 2540/release)
Writing library : VirtualDubMod build 2540/release

Video
ID : 0
Format : MPEG-4 Visual
Format profile : Advanced Simple@L5
Format settings, BVOP : 2
Format settings, QPel : No
Format settings, GMC : No warppoints
Format settings, Matrix : Default (MPEG)
Codec ID : XVID
Codec ID/Hint : XviD
Duration : 1h 36mn
Bit rate : 1 642 Kbps
Width : 720 pixels
Height : 304 pixels
Display aspect ratio : 2.35:1
Frame rate : 23.976 fps
Color space : YUV
Chroma subsampling : 4:2:0
Bit depth : 8 bits
Scan type : Progressive
Compression mode : Lossy
Bits/(Pixel*Frame) : 0.313
Stream size : 1.10 GiB (81%)
Writing library : XviD 1.2.1 (UTC 2008-12-04)

Audio
ID : 1
Format : AC-3
Format/Info : Audio Coding 3
Mode extension : CM (complete main)
Format settings, Endianness : Big
Codec ID : 2000
Duration : 1h 36mn
Bit rate mode : Constant
Bit rate : 384 Kbps
Channel(s) : 2 channels
Channel positions : Front: L R
Sampling rate : 48.0 KHz
Bit depth : 16 bits
Compression mode : Lossy
Stream size : 264 MiB (19%)
Alignment : Split accross interleaves
Interleave, duration : 42 ms (1.00 video frame)
Interleave, preload duration : 500 ms

Есть реклама!pb.wtf



Скачать Войны бессмертных через торрент http://pic1.kartinco.top/images/11/nt432.jpg Скачать фильм Войны бессмертных через торрент бесплантно в хорошем качестве Описание: В постапокалиптическом мире, разделённом на несколько супер-государств, правящая элита каждый год проводит смертельный турнир ... 6.9 10 15
Торрент: Зарегистрирован [2018-07-24 08:29] · скачан: 324 раз
Статус: T временная
Размер: 1.37 GB
Как cкачать? Как скачать Войны бессмертных через торрент | qTorrent

% Раздел Тема Автор DL S | L
T Фильмы (мультфильмы) cо спонсором показа (Новинки AVI/MKV) [ 5.17 GB ] Войны Бессмертных 2: Возрождение / The Immortal Wars: Resurgence [2019 WEB-DL 1080p] MVO ["Синема УС"] bober100 Скачать
1 | 0
T Фильмы (мультфильмы) cо спонсором показа (Новинки AVI/MKV) [ 4.56 GB ] Войны Бессмертных 2: Возрождение / The Immortal Wars: Resurgence [2019 WEB-DL 720p] MVO ["Синема УС"] bober100 Скачать
1 | 0
T Фильмы (мультфильмы) cо спонсором показа (Новинки AVI/MKV) [ 1.46 GB ] Войны Бессмертных 2: Возрождение / The Immortal Wars: Resurgence [2019 WEB-DLRip] MVO ["Синема УС"] bober100 Скачать
1 | 0


Последний раз редактировалось: lic007 (2018-07-25 06:03), всего редактировалось 4 раз(а)

28-11-2019 20:33  

Отключить всю рекламу на сайте

24-07-2018 19:26 Войны бессмертных Скачать торрент  

lic007,
1. озвучка от @MUZOBOZ@ - любительская, исправьте.
2. Сэмпл для фильмов в формате AVI должен быть сделан в таком же формате (то есть AVI, а не MKV как у вас сейчас).
Правила оформления раздач в разделе «Фильмов» пункт 13.
Сэмпл в формате AVI можно сделать с помощью VirtualDubMod, читайте по ссылке под спойлером "Сэмпл для DVDRip/HDRip/BDRip/...." Как изготовить минутный видео сэмпл (Жмите)
3. Обратите внимание: Год выпуска, Страна, Жанр и так далее должны быть выделены шрифтом, вот так:
Год выпуска: 2018
Страна: США
Жанр: боевик
Продолжительность: 01:36:04
Режиссер: Джо Луян
В ролях:
Описание:
Качество: WEB-DLRip
Формат: AVI
Видео: Xvid 720x304 23.976fps 1 642 Kbps
Аудио : Dolby AC3 48000Hz 2ch 384kbps
В прошлых раздачах я вам исправлял, здесь будьте добры, исправьте самостоятельно.

Когда исправите, или если есть вопросы, пишите здесь или мне в л/с.
pb.wtf





Последний раз редактировалось: -Lexx- (2018-07-25 06:20), всего редактировалось 1 раз
    Дорогой пользователь! Огромная просьба, поблагодарите релизера, оцените раздачу и оставьте свои комментарий, если Вы скачали Войны бессмертных через торрент бесплатно! Внесите свою лепту в развитие PiratBit!
    Комментировать посты могут только пользователи прошедшие не сложную регистрацию
    Показать сообщения:    

    Войны бессмертных через торрент
    Скачать бесплатно Войны бессмертных
    Войны бессмертных скачать торрент
    Войны бессмертных смотреть онлайн
    Cкачать фильм Войны бессмертных бесплатно
    Войны бессмертных скачать торрент в хорошем качестве
    Войны бессмертных смотреть онлайн бесплатно в хорошем качестве


    Вы не можете начинать темы
    Вы не можете отвечать на сообщения
    Вы не можете редактировать свои сообщения
    Вы не можете удалять свои сообщения
    Вы не можете голосовать в опросах
    Вы не можете прикреплять файлы к сообщениям
    Вы можете скачивать файлы