Доктор Стрэндж

Лицензия

Добыча

Дубляж

Дом дракона

1 сезон

Тор

Дубляж

В эфире

Дубляж

Там, где раки поют

MVO

Властелин колец

1 сезон

GLOBAL

pack

Рекомендуем

30

Пиратка

ВАЖНО

ВАЖНО

Ghostwire

Пиратка

jed

RePack

nioh2

RePack

RDR2

RePack

NEED FOR SPEED™ PAYBACK

RePack

скачать торрент

Кинопоиск HD

Острые козырьки 6 сезон

6 сезон

FAR CRY 6

RePack

скачать торрент

Лицензия

скачать торрент

MVO

1

1 сезон

скачать торрент

1 сезон

скачать торрент

Лицензия

  

Больше, чем друг / The Switch (Джош Гордон, Уилл Спек / Josh Gordon, Will Speck) [2010, США, комедия, мелодрама, драма, BDRip, 720p.]

Больше, чем друг через торрент pb.wtf

Качают: 1 [ 0 KB/s ]
Размер: 4.68 GB | Добавлен: 11 лет назад | Торрент скачан:59 раз
Смотреть онлайн | Скачать   

06-12-2010 13:05 Больше, чем друг Скачать торрент  

Больше, чем друг / The Switch«Меньше чем любовник»
Год выпуска: 2010
Страна: США, Echo Films
Жанр: драма, мелодрама, комедия
Продолжительность: 01:41:23
Перевод:
Профессиональный (полное дублирование)

Режиссер: Джош Гордон / Josh Gordon, Уилл Спек / Will Speck
Сценарий: Аллан Лоб / Allan Loeb, Джеффри Евгенидис / Jeffrey Eugenides
Продюсер: Дженнифер Энистон / Jennifer Aniston, Рон Йеркса / Ron Yerxa, Брайан Белл / Brian Bell, Альберт Бергер / Albert Berger, Кристин Хан / Kristin Hahn
Оператор: Джесс Холл / Jess Hall
Композитор: Алекс Вурман / Alex Wurman
Бюджет: $16 000 000 | Сборы в США: $27 779 426 | Сборы в мире: $45 808 305
IMDB: 5.9 (4,265) | КиноПоиск: 6.419 (4 332)
КиноПоиск.Ru | IMDb.com

В ролях:
Джейсон Бейтман (Wally Mars), Виктор Паган (Knit Hat Guy), Дженнифер Энистон (Kassie Larson,), Джефф Голдблюм (Leonard), Джульетт Льюис (Debbie), Тодд Луисо (Artie), Скотт Элрод (Declan), Патрик Уилсон (Roland), Ребекка Наоми Джонс (Party Guest), Келли Баррет (Roland's Wife Jessica), Jeremy J. Mohler (Party Guest #2), Уилл Свенсон (Actor on Stage)
Дублёры: Алексей Мясников (Wally Mars), Марианна Шульц (Kassie Larson), Владимир Герасимов (Leonard), Ирина Киреева (Debbie), Иван Дахненко (Sebastian; Older Sebastian)
Описание:
Во всем Нью-Йорке не было ближе друзей, чем риэлтор-невротик Уолли и очаровательная Кэсси. Однако когда Кэсси решится на искусственное оплодотворение, донором она выберет надежного и женатого красавца Роланда… Лучшие друзья решают отметить это вечеринкой, где Уолли напивается до неприличия…
Через шесть лет Кэсси возвращается в Нью-Йорк с 5-летним сыном, который поразительно напоминает Уолли самого себя, а заодно вызывает в его памяти все, что случилось той злополучной ночью. Теперь незадачливому «другу» предстоит убедить Кэсси, что они - больше чем друзья, выиграть у Роланда статус «настоящего папы», и разобраться с самим собой.

Качество: BDRip | | Формат: Matroska
Видео кодек: h.264 | Аудио кодек: AC-3,DTS
Видео: AVC; 1280 x 544 (2.40:1); 4652 Kbps; 23,976 fps; 0,278 bpp
Аудио № 1: Russian; AC3; 48 kHz, 448 Kbps; CBR; 6 ch |Дубляж|
Аудио № 2: English; DTS; 48 kHz, 1509 Kbps; CBR; 6 ch; 24 bit>отдельным файлом
Субтитры: English
Cэмпл: Скачать

Complete name : The.Switch.2010.BDRip.720p.mkv
Format : Matroska
File size : 3.61 GiB
Duration : 1h 41mn
Overall bit rate : 5 099 Kbps
Movie name : The.Switch.2010.Bluray.720p.DTS.x264-CHD
Encoded date : UTC 2010-12-05 13:26:24
Writing application : mkvmerge v3.3.0 ('Language') built on Mar 24 2010 14:59:24
Writing library : libebml v0.8.0 + libmatroska v0.9.0
Video #1
ID : 1
Format : AVC
Format/Info : Advanced Video Codec
Format profile : [email protected]
Format settings, CABAC : Yes
Format settings, ReFrames : 12 frames
Muxing mode : Container [email protected]
Codec ID : V_MPEG4/ISO/AVC
Duration : 1h 41mn
Bit rate : 4 550 Kbps
Nominal bit rate : 4 652 Kbps
Width : 1 280 pixels
Height : 544 pixels
Display aspect ratio : 2.35:1
Frame rate : 23.976 fps
Resolution : 8 bits
Colorimetry : 4:2:0
Scan type : Progressive
Bits/(Pixel*Frame) : 0.273
Stream size : 3.22 GiB (89%)
Title : The.Switch.2010.Bluray.720p.DTS.x264-CHD
Writing library : x264 core 102 r1666 d058f37
Encoding settings : cabac=1 / ref=12 / deblock=1:-3:-3 / analyse=0x3:0x113 / me=umh / subme=10 / psy=1 / psy_rd=1.05:0.10 / mixed_ref=1 / me_range=32 / chroma_me=1 / trellis=2 / 8x8dct=1 / cqm=2 / deadzone=21,11 / fast_pskip=0 / chroma_qp_offset=-2 / threads=6 / sliced_threads=0 / nr=0 / decimate=1 / interlaced=0 / constrained_intra=0 / bframes=6 / b_pyramid=2 / b_adapt=2 / b_bias=0 / direct=3 / weightb=1 / open_gop=0 / weightp=2 / keyint=250 / keyint_min=25 / scenecut=40 / intra_refresh=0 / rc_lookahead=40 / rc=2pass / mbtree=1 / bitrate=4652 / ratetol=1.0 / qcomp=0.60 / qpmin=10 / qpmax=51 / qpstep=4 / cplxblur=20.0 / qblur=0.5 / vbv_maxrate=50000 / vbv_bufsize=50000 / ip_ratio=1.40 / aq=1:0.80 / nal_hrd=none
Language : English
Audio #2
ID : 2
Format : AC-3
Format/Info : Audio Coding 3
Codec ID : A_AC3
Duration : 1h 41mn
Bit rate mode : Constant
Bit rate : 448 Kbps
Channel(s) : 6 channels
Channel positions : Front: L C R, Surround: L R, LFE
Sampling rate : 48.0 KHz
Stream size : 325 MiB (9%)
Title : AC3 448 Дубляж
Language : Russian
Text #3
ID : 3
Format : UTF-8
Codec ID : S_TEXT/UTF8
Codec ID/Info : UTF-8 Plain Text
Language : English

Съемки проекта «Больше, чем друг» целиком и полностью проходили на натуре в Нью-Йорке.
«Больше, чем друг» снят по мотивам рассказа лауреата Пулитцеровской премии Джеффри Евгенидеса, автора романов «Девственницы-самоубийцы» и «Средний пол». Впервые рассказ появился в журнале «Нью-йоркер» и привлек внимание сценариста Аллана Лоэба («Двадцать одно», «То, что мы потеряли»), который, в конечном счете, и написал к нему сценарий.





Скачать Больше, чем друг через торрент http://i13.fastpic.ru/big/2010/1206/f0/e2fcdbe477d234a03285d486923bc6f0.jpg Скачать, смотреть онлайн Больше, чем друг бесплантно в хорошем качестве Описание:Во всем Нью-Йорке не было ближе друзей, чем риэлтор-невротик Уолли и очаровательная Кэсси. Однако когда Кэсси решится на ... 9.5 10 2
Info! Золотая раздача, скачанное не засчитывается.
Торрент: Зарегистрирован [2010-12-06 13:05] · скачан: 59 раз
Статус: √ проверено
Размер: 4.68 GB
Как cкачать? Как скачать Больше, чем друг через торрент | UTorrent

% Раздел Тема Автор DL S | L
Фильмы 2010 [ 1.37 GB ] Больше, чем друг / The Switch | | Больше, чем друг / The Switch (Джош Гордон / Josh Gordon, Уилл Спек / Will Speck SeriyWolf Скачать
1 | 0

28-11-2019 20:33  


Отключить вcю реклaмy на сайте, в т.ч. и в плеере онлайн просмотра!

    Дорогой пользователь! Огромная просьба, поблагодарите релизера, оцените раздачу и оставьте свои комментарий, если Вы скачали Больше, чем друг через торрент бесплатно!!
    Комментировать посты могут только пользователи прошедшие не сложную регистрацию
    Показать сообщения:    


    Больше, чем друг через торрент
    Скачать бесплатно Больше, чем друг
    Больше, чем друг скачать торрент
    Больше, чем друг смотреть онлайн
    Cкачать фильм Больше, чем друг бесплатно
    Больше, чем друг скачать торрент в хорошем качестве
    Больше, чем друг смотреть онлайн бесплатно в хорошем качестве
    Вы не можете начинать темы
    Вы не можете отвечать на сообщения
    Вы не можете редактировать свои сообщения
    Вы не можете удалять свои сообщения
    Вы не можете голосовать в опросах
    Вы не можете прикреплять файлы к сообщениям
    Вы можете скачивать файлы
    Больше, чем друг / The Switch [2010, США, комедия, мелодрама, драма, BDRip, 720p.] смотреть онлайн, скачать торрент picoco.icu