Ссылка на приватное зеркало нашего сайта всего за 1$. Внимание количество ограничено!!!

2 сезон

iTunes

1 сезон

1

2 сезон

2 сезон

iTunes

1 сезон

RePack

30

Ultimate

ВАЖНО

ИГРА 18+

pack

RePack

MK11
pack

Забери бонус

RePack

jed

!!Акция!!

Alien_Rage

RePack

fifa19

RePack

Assassins Creed: Odyssey

RePack

NEED FOR SPEED™ PAYBACK

4 сезон

9 сезон

Бесстыжие 9 сезон

Все сериалы

все сериалы на PB.wtf

RePack

FAR CRY 5
  

Год жизни по-библейски / Жизнь по-библейски / Living Biblically / Сезон: 1 / Серии: 1-13 из 13 (Энди Экерман) [2018, Комедия, WEBRip 720p] MVO [Jaskier] pb.wtf

Год жизни по-библейски через торрент pb.wtf

Размер: 8.97 GB | Добавлен: 2 года 3 мес. назад | Торрент скачан:20 раз
Скачать  

25-07-2018 04:14 Год жизни по-библейски Скачать торрент  

Жизнь по-библейски | Living Biblically Год выпуска: 2018
Страна: США
Жанр: Комедия
Продолжительность: ~ 00:22:00
Перевод: Профессиональный (многоголосый закадровый) | Jaskier
Субтитры: английские

Режиссёр: Энди Экерман

В ролях:

Джей Р. Фергюсон, Линдси Крафт, Камрин Менхейм, Иэн Гомес, Дэвид Крамхолц, Тони Рок, Карла Рената, Трэвис Коулз, Нэнси Дейли, Норин ДеВулф

Описание:

Главный герой - обычный парень Чип Карри, который решил кардинально изменить свою жизнь. В течение года он будет жить по всем правилам и руководствам, которые ему удалось найти в Библии, а окружающим придется приспособиться к новым чудачествам Чипа. Помогать герою в непростом деле будут его девушка Лесли, христианский пастор отец Джин и рабби Джил.

rating

Качество: WEBRip 720p
Формат: MKV

Видео: 1280x720 (16:9) | X264 | ~3300 kbps | 23.976 fps
Аудио 1: AC3, 48,0 КГц, 6 ch, 384 kbps - [RUS]
Аудио 2: AC3, 48,0 КГц, 6 ch, 384 kbps - [ENG]


Реклама: Присутствует звуковая (два раза в начале и конце по 12 сек.)
Переведено и озвучено: студией Jaskier
Общее
Уникальный идентификатор                 : 201669483361637234899774743215925900958 (0x97B8213333ABB5F4861B4F7178D4369E)
Полное имя                               : D:\Яскъер\Living Biblically. Season 1 (WEBRip l 720p l Jaskier)\Living.Biblically.S01E01.720p.AMZN.WEBRip.DD5.1.x264-Jaskier.mkv
Формат                                   : Matroska
Версия формата                           : Version 2
Размер файла                             : 609 Мбайт
Продолжительность                        : 21 м. 8 с.
Общий поток                              : 4031 Кбит/сек
Дата кодирования                         : UTC 2018-03-02 19:29:42
Программа кодирования                    : mkvmerge v7.8.0 ('River Man') 32bit built on Apr  3 2015 12:11:22
Библиотека кодирования                   : libebml v1.3.1 + libmatroska v1.4.2

Видео
Идентификатор                            : 1
Формат                                   : AVC
Формат/Информация                        : Advanced Video Codec
Профиль формата                          : High@L4.1
Настройки формата                        : CABAC / 9 Ref Frames
Параметр CABAC формата                   : Да
Параметр RefFrames формата               : 9 кадров
Идентификатор кодека                     : V_MPEG4/ISO/AVC
Продолжительность                        : 21 м. 8 с.
Битрейт                                  : 3182 Кбит/сек
Ширина                                   : 1280 пикселей
Высота                                   : 720 пикселей
Соотношение сторон                       : 16:9
Режим частоты кадров                     : Постоянный
Частота кадров                           : 23,976 (24000/1001) кадра/сек
Цветовое пространство                    : YUV
Субдискретизация насыщенности            : 4:2:0
Битовая глубина                          : 8 бит
Тип развёртки                            : Прогрессивная
Бит/(Пиксели*Кадры)                      : 0.144
Размер потока                            : 481 Мбайт (79%)
Библиотека кодирования                   : x264 core 148 r2643 5c65704
Настройки программы                      : cabac=1 / ref=9 / deblock=1:-3:-3 / analyse=0x3:0x133 / me=umh / subme=11 / psy=1 / psy_rd=1.00:0.00 / mixed_ref=1 / me_range=32 / chroma_me=1 / trellis=2 / 8x8dct=1 / cqm=0 / deadzone=21,11 / fast_pskip=1 / chroma_qp_offset=-2 / threads=6 / lookahead_threads=2 / sliced_threads=0 / nr=0 / decimate=0 / interlaced=0 / bluray_compat=0 / constrained_intra=0 / bframes=8 / b_pyramid=2 / b_adapt=2 / b_bias=0 / direct=3 / weightb=1 / open_gop=0 / weightp=2 / keyint=250 / keyint_min=23 / scenecut=40 / intra_refresh=0 / rc=crf / mbtree=0 / crf=17.0 / qcomp=0.60 / qpmin=0 / qpmax=69 / qpstep=4 / ip_ratio=1.40 / pb_ratio=1.30 / aq=3:0.85
Язык                                     : English
Default                                  : Да
Forced                                   : Нет

Аудио #1
Идентификатор                            : 2
Формат                                   : AC-3
Формат/Информация                        : Audio Coding 3
Идентификатор кодека                     : A_AC3
Продолжительность                        : 21 м. 8 с.
Вид битрейта                             : Постоянный
Битрейт                                  : 384 Кбит/сек
Каналы                                   : 6 каналов
Расположение каналов                     : Front: L C R, Side: L R, LFE
Частота                                  : 48,0 КГц
Частота кадров                           : 31,250 кадров/сек (1536 SPF)
Битовая глубина                          : 16 бит
Метод сжатия                             : С потерями
Размер потока                            : 58,1 Мбайт (10%)
Заголовок                                : Jaskier
Язык                                     : Russian
ServiceKind/String                       : Complete Main
Default                                  : Да
Forced                                   : Нет

Аудио #2
Идентификатор                            : 3
Формат                                   : AC-3
Формат/Информация                        : Audio Coding 3
Идентификатор кодека                     : A_AC3
Продолжительность                        : 21 м. 8 с.
Вид битрейта                             : Постоянный
Битрейт                                  : 384 Кбит/сек
Каналы                                   : 6 каналов
Расположение каналов                     : Front: L C R, Side: L R, LFE
Частота                                  : 48,0 КГц
Частота кадров                           : 31,250 кадров/сек (1536 SPF)
Битовая глубина                          : 16 бит
Метод сжатия                             : С потерями
Размер потока                            : 58,1 Мбайт (10%)
Язык                                     : English
ServiceKind/String                       : Complete Main
Default                                  : Нет
Forced                                   : Нет

Текст
Идентификатор                            : 4
Формат                                   : UTF-8
Идентификатор кодека                     : S_TEXT/UTF8
Идентификатор кодека/Информация          : UTF-8 Plain Text
Язык                                     : English
Default                                  : Нет
Forced                                   : Нет
скриншот  скриншот  скриншот  
Когда раздача ведётся путём добавления новых серий, при каждом добавлении создётся новый торрент. Чтобы начать докачку новой серии, пользователям необходимо сделать следующее:
(1) остановить скачивание,
(2) удалить старый торрент у себя из клиента (старые серии удалять не надо),
(3) скачать новый торрент и запустить его у себя в клиенте вместо старого, при этом указать клиенту путь в старую папку, куда и должно происходить скачивание новых серий.
Ваш клиент при этом должен произвести хеширование (проверку) старой папки (если не производит сам - помогите ему сделать это), и будет докачивать только те серии, которых у вас ещё нет. Старые серии при этом не удаляются, а продолжают раздаваться!
Eсли вы уже удалили старые серии, то предотвратить повторную закачку старых серий можно, отжав галочку в соответсвующих местах при запуске нового торрента. По возможности, желательно не удалять старые серии как можно дольше, чтобы релизёр не столько продолжал раздавать старые серии, а смог сконцентрироваться на новых.
pb.wtf



Скачать Год жизни по-библейски через торрент http://i103.fastpic.ru/big/2018/0301/b4/592de96fe501c335f14ed41041dd4cb4.png Скачать фильм Год жизни по-библейски через торрент бесплантно в хорошем качестве Описание: Главный герой - обычный парень Чип Карри, который решил кардинально изменить свою жизнь. В течение года он будет жить по всем ... 10 10 2
Info! Серебряная раздача, засчитывается только 50% скачанного.
Торрент: Зарегистрирован [2018-08-18 12:16] · скачан: 20 раз
Статус: √ проверено
Размер: 8.97 GB
Как cкачать? Как скачать Год жизни по-библейски через торрент | qTorrent

% Раздел Тема Автор DL S | L
Зарубежные сериалы [ 17.57 GB ] Год жизни по-библейски / Жизнь по-библейски / Living Biblically / Сезон: 1 / Серии: 1-13 из 13 [2018 WEBRip 1080p] MVO [Jaskier] bober100 Скачать
1 | 0
Зарубежные сериалы [ 3.18 GB ] Год жизни по-библейски / Жизнь по-библейски / Living Biblically / Сезон: 1 / Серии: 1-13 из 13 [2018 WEBRip] MVO [Jaskier] bober100 Скачать
1 | 0

28-11-2019 20:33  

Отключить всю рекламу на сайте

    Дорогой пользователь! Огромная просьба, поблагодарите релизера, оцените раздачу и оставьте свои комментарий, если Вы скачали Год жизни по-библейски через торрент бесплатно! Внесите свою лепту в развитие PiratBit!
    Комментировать посты могут только пользователи прошедшие не сложную регистрацию
    Показать сообщения:    

    Год жизни по-библейски через торрент
    Скачать бесплатно Год жизни по-библейски
    Год жизни по-библейски скачать торрент
    Год жизни по-библейски смотреть онлайн
    Cкачать фильм Год жизни по-библейски бесплатно
    Год жизни по-библейски скачать торрент в хорошем качестве
    Год жизни по-библейски смотреть онлайн бесплатно в хорошем качестве


    Вы не можете начинать темы
    Вы не можете отвечать на сообщения
    Вы не можете редактировать свои сообщения
    Вы не можете удалять свои сообщения
    Вы не можете голосовать в опросах
    Вы не можете прикреплять файлы к сообщениям
    Вы можете скачивать файлы