Ссылка на приватное зеркало нашего сайта всего за 1$. Внимание количество ограничено!!!

2 сезон

iTunes

1 сезон

1

2 сезон

2 сезон

iTunes

1 сезон

RePack

30

Новинка

ВАЖНО

ИГРА 18+

pack

RePack

MK11
pack

Забери бонус

RePack

jed

!!Акция!!

Alien_Rage

RePack

fifa19

RePack

Assassins Creed: Odyssey

RePack

NEED FOR SPEED™ PAYBACK

4 сезон

9 сезон

Бесстыжие 9 сезон

Все сериалы

все сериалы на PB.wtf

RePack

FAR CRY 5
  

Поза / Pose / Сезон: 1 / Серии: 1-8 из 8 (Райан Мёрфи, Нельсон Крегг, Сайлэс Ховард) [2018, драма, мюзикл, WEB-DL 720p] MVO [Jaskier] pb.wtf

Поза через торрент pb.wtf

Размер: 11.44 GB | Добавлен: 2 года 4 мес. назад | Торрент скачан:10 раз
Скачать  

25-07-2018 12:45 Поза Скачать торрент  

Поза | Pose

Год выпуска: 2018
Страна: США
Жанр: драма, мюзикл
Продолжительность: ~ 01:19:00
Перевод: Профессиональный (многоголосый закадровый) | Студия Jaskier
Субтитры: английские

Режиссёр: Райан Мёрфи, Нельсон Крегг, Сайлэс Ховард

В ролях:

Индия Мур, Энджел Куриэль, Кейт Мара, Джереми МакКлейн, Эван Питерс, Анджелика Росс и другие.

Описание:

События сериала происходят в Нью-Йорке 80-ых годов. Сюжет построен вокруг исследования жизни нескольких социальных групп, населяющих главный мегаполис США. Внимание уделяется растущей популярности на роскошь, связанной с подъемом Дональда Трампа, быту деловых кварталов, будням литературной и художественной среды, а также шумным вечеринкам.

rating

Качество: WEB-DL 720p
Формат: MKV

Видео: 1280x720 (16:9) | X264/MPEG4-AVC | ~3900 kbps | 23.976 fps
Аудио 1: AC3 | 48 KHz | 5.1 (Front: L С R Side: L R) + LFE | ~384 kbps [RUS]
Аудио 2: AC3 | 48 KHz | 5.1 (Front: L С R Side: L R) + LFE | ~384 kbps [ENG]


Реклама: Присутствует звуковая (два раза в начале и конце по 10 сек.)
Переведено и озвучено студией JASKIER
Общее
Уникальный идентификатор : 252429632246180414608992664635094077973 (0xBDE82DC32C5B05C9AA846751A4201215)
Полное имя : D:\Яскъер\Pose. Season 1 (WEB-DL l 720p l Jaskier)\Pose.S01E01.720p.WEB-DL.DD5.1.H.264-Jaskier.mkv
Формат : Matroska
Версия формата : Version 2
Размер файла : 2,56 Гбайт
Продолжительность : 1 ч. 19 м.
Общий поток : 4597 Кбит/сек
Дата кодирования : UTC 2018-06-06 16:19:40
Программа кодирования : mkvmerge v7.8.0 ('River Man') 32bit built on Apr 3 2015 12:11:22
Библиотека кодирования : libebml v1.3.1 + libmatroska v1.4.2

Видео
Идентификатор : 1
Формат : AVC
Формат/Информация : Advanced Video Codec
Профиль формата : High@L3.1
Настройки формата : CABAC / 5 Ref Frames
Параметр CABAC формата : Да
Параметр RefFrames формата : 5 кадров
Идентификатор кодека : V_MPEG4/ISO/AVC
Продолжительность : 1 ч. 19 м.
Битрейт : 3738 Кбит/сек
Ширина : 1280 пикселей
Высота : 720 пикселей
Соотношение сторон : 16:9
Режим частоты кадров : Постоянный
Частота кадров : 23,976 (24000/1001) кадра/сек
Цветовое пространство : YUV
Субдискретизация насыщенности : 4:2:0
Битовая глубина : 8 бит
Тип развёртки : Прогрессивная
Бит/(Пиксели*Кадры) : 0.169
Размер потока : 2,08 Гбайт (81%)
Язык : English
Default : Да
Forced : Нет
Цветовой диапазон : Limited
Основные цвета : BT.709
Характеристики трансфера : BT.709
Коэффициенты матрицы : BT.709

Аудио #1
Идентификатор : 2
Формат : AC-3
Формат/Информация : Audio Coding 3
Идентификатор кодека : A_AC3
Продолжительность : 1 ч. 19 м.
Вид битрейта : Постоянный
Битрейт : 384 Кбит/сек
Каналы : 6 каналов
Расположение каналов : Front: L C R, Side: L R, LFE
Частота : 48,0 КГц
Частота кадров : 31,250 кадров/сек (1536 SPF)
Битовая глубина : 16 бит
Метод сжатия : С потерями
Размер потока : 219 Мбайт (8%)
Заголовок : Jaskier
Язык : Russian
ServiceKind/String : Complete Main
Default : Да
Forced : Нет

Аудио #2
Идентификатор : 3
Формат : AC-3
Формат/Информация : Audio Coding 3
Идентификатор кодека : A_AC3
Продолжительность : 1 ч. 19 м.
Вид битрейта : Постоянный
Битрейт : 384 Кбит/сек
Каналы : 6 каналов
Расположение каналов : Front: L C R, Side: L R, LFE
Частота : 48,0 КГц
Частота кадров : 31,250 кадров/сек (1536 SPF)
Битовая глубина : 16 бит
Метод сжатия : С потерями
Размер потока : 219 Мбайт (8%)
Язык : English
ServiceKind/String : Complete Main
Default : Нет
Forced : Нет

Текст
Идентификатор : 4
Формат : UTF-8
Идентификатор кодека : S_TEXT/UTF8
Идентификатор кодека/Информация : UTF-8 Plain Text
Язык : English
Default : Нет
Forced : Нет
скриншот  скриншот  скриншот  
Когда раздача ведётся путём добавления новых серий, при каждом добавлении создётся новый торрент. Чтобы начать докачку новой серии, пользователям необходимо сделать следующее:
(1) остановить скачивание,
(2) удалить старый торрент у себя из клиента (старые серии удалять не надо),
(3) скачать новый торрент и запустить его у себя в клиенте вместо старого, при этом указать клиенту путь в старую папку, куда и должно происходить скачивание новых серий.
Ваш клиент при этом должен произвести хеширование (проверку) старой папки (если не производит сам - помогите ему сделать это), и будет докачивать только те серии, которых у вас ещё нет. Старые серии при этом не удаляются, а продолжают раздаваться!
Eсли вы уже удалили старые серии, то предотвратить повторную закачку старых серий можно, отжав галочку в соответсвующих местах при запуске нового торрента. По возможности, желательно не удалять старые серии как можно дольше, чтобы релизёр не столько продолжал раздавать старые серии, а смог сконцентрироваться на новых.
pb.wtf



Скачать Поза через торрент http://img12.lostpic.net/2018/06/05/a0835c0d056ca6d15198bc8b86bf477e.png Скачать фильм Поза через торрент бесплантно в хорошем качестве Описание: События сериала происходят в Нью-Йорке 80-ых годов. Сюжет построен вокруг исследования жизни нескольких социальных групп, ... 10 10 2
Info! Серебряная раздача, засчитывается только 50% скачанного.
Торрент: Зарегистрирован [2018-07-25 12:45] · скачан: 10 раз
Статус: √ проверено
Размер: 11.44 GB
Как cкачать? Как скачать Поза через торрент | qTorrent

% Раздел Тема Автор DL S | L
Зарубежные сериалы [ 5.67 GB ] Поза / Pose / Сезон: 1 / Серии: 1-8 из 8 [2018 мюзикл WEB-DLRip] MVO [Jaskier] bober100 Скачать
1 | 0
Зарубежные сериалы [ 33.81 GB ] Поза / Pose / Сезон: 1 / Серии: 1-8 из 8 [2018 мюзикл WEB-DL 1080p] MVO [Jaskier] bober100 Скачать
1 | 0

28-11-2019 20:33  

Отключить всю рекламу на сайте

    Дорогой пользователь! Огромная просьба, поблагодарите релизера, оцените раздачу и оставьте свои комментарий, если Вы скачали Поза через торрент бесплатно! Внесите свою лепту в развитие PiratBit!
    Комментировать посты могут только пользователи прошедшие не сложную регистрацию
    Показать сообщения:    

    Поза через торрент
    Скачать бесплатно Поза
    Поза скачать торрент
    Поза смотреть онлайн
    Cкачать фильм Поза бесплатно
    Поза скачать торрент в хорошем качестве
    Поза смотреть онлайн бесплатно в хорошем качестве


    Вы не можете начинать темы
    Вы не можете отвечать на сообщения
    Вы не можете редактировать свои сообщения
    Вы не можете удалять свои сообщения
    Вы не можете голосовать в опросах
    Вы не можете прикреплять файлы к сообщениям
    Вы можете скачивать файлы