новый адрес
Ссылка на приватное зеркало всего за 1$. Внимание количество ограничено!!!

iTunes

1+1

iTunes

мы

WEB-DL

1

iTunes

Чернобыль

iTunes

Ральф против интернета

Лицензия

ПШазам

Лицензия

Оно 2

Лицензия

30
pack

Вам бонус

ВАЖНО

!!Акция!!

Alien_RageХит недели

RePack

Resident Evil 21

ИГРА 18+

pack

RePack

jed

!!Акция!!

Alien_Rage

RePack

fifa19

RePack

Assassins Creed: Odyssey

RePack

NEED FOR SPEED™ PAYBACK

3 сезон

9 сезон

Бесстыжие 9 сезон

Все сериалы

все сериалы на PB.wtf

RePack

FAR CRY 5
Ребята, катастрофически не хватает 1900р. для оплаты серверов за Октябрь (всвязи с блокировками трафик упал в 3 раза), 1-2р., выручайте.
  

Погоня за любовью / Social Animals (Тереза Беннетт) [2018 г., Комедия, WEB-DLRip, Дубляж iTunes] pb.wtf

Погоня за любовью через торрент pb.wtf

Размер: 1.46 GB | Добавлен: 1 год 4 мес. назад | Торрент скачан:124 раза
Скачать  

25-07-2018 13:11 Погоня за любовью Скачать торрент  

Погоня за любовью / Social Animals
Год выпуска: 2018
Страна: США
Жанр: Комедия
Продолжительность: 01:23:26
Перевод: Дубляж iTunes
Субтитры: Нет

Режиссер: Тереза Беннетт

rating

В ролях: Самира Уайли, Карли Чаикин, Джош Рэднор, Ая Кэш, Ноэль Кристи Уэллс, Фортун Феймстер, Адам Шапиро, Шарлотта Делани Риггс, Гари Тиг, Брэйден Скотт, Шэйн Якобсен, Тристан Риггс, Джеймс Хэл Харди, Минди Рэймонд, Карлтон Кодл, Коулмэн Лэннам, Натали Холмс, Рико Леброн, Клэр Райли

Описание: Так уж вышло, что в жизни Зои Крэндл ничего не складывается. Из квартиры выселяют, бизнес идет ко дну, в личной жизни дальше романов на одну ночь не продвигается. И когда, как казалось, всё идет под откос, она встречает симпатягу-неудачника Пола. Между ними сразу возникает связь. Но есть одна проблема: Пол женат. Зои вместе с подругой разрабатывает план, который поможет спасти бизнес и устроить личную жизнь.

Качество: WEB-DLRip
Формат: AVI
Видео кодек: XviD
Аудио кодек: AC3
Видео: XviD, 720x304, 23.976 fps, 2112 kbps
Аудио#1: AC3, 6 ch, 384 kbps
скриншот   скриншот   скриншот   скриншот  

General
Complete name : H:\релизы.торрентфайл\Social.Animals.2018.WEB-DLRip.1.46Gb.MegaPeer.avi
Format : AVI
Format/Info : Audio Video Interleave
File size : 1.46 GiB
Duration : 1h 23mn
Overall bit rate : 2 506 Kbps
Writing application : VirtualDubMod 1.5.10.2 (build 2540/release)
Writing library : VirtualDubMod build 2540/release

Video
ID : 0
Format : MPEG-4 Visual
Format profile : Advanced Simple@L5
Format settings, BVOP : 1
Format settings, QPel : No
Format settings, GMC : No warppoints
Format settings, Matrix : Custom
Codec ID : XVID
Codec ID/Hint : XviD
Duration : 1h 23mn
Bit rate : 2 113 Kbps
Width : 720 pixels
Height : 304 pixels
Display aspect ratio : 2.35:1
Frame rate : 23.976 fps
Color space : YUV
Chroma subsampling : 4:2:0
Bit depth : 8 bits
Scan type : Progressive
Compression mode : Lossy
Bits/(Pixel*Frame) : 0.403
Stream size : 1.23 GiB (84%)
Writing library : XviD 73

Audio
ID : 1
Format : AC-3
Format/Info : Audio Coding 3
Mode extension : CM (complete main)
Format settings, Endianness : Big
Codec ID : 2000
Duration : 1h 23mn
Bit rate mode : Constant
Bit rate : 384 Kbps
Channel(s) : 6 channels
Channel positions : Front: L C R, Side: L R, LFE
Sampling rate : 48.0 KHz
Bit depth : 16 bits
Compression mode : Lossy
Stream size : 229 MiB (15%)
Alignment : Split accross interleaves
Interleave, duration : 42 ms (1.00 video frame)
Interleave, preload duration : 500 ms

pb.wtf



Скачать Погоня за любовью через торрент http://pic1.kartinco.top/images/11/j1ayb.jpg Скачать фильм Погоня за любовью через торрент бесплантно в хорошем качестве Описание: Так уж вышло, что в жизни Зои Крэндл ничего не складывается. Из квартиры выселяют, бизнес идет ко дну, в личной жизни дальше ... 10 10 4
Торрент: Зарегистрирован [2018-07-25 13:11] · скачан: 124 раз
Статус: √ проверено
Размер: 1.46 GB
Как cкачать? Как скачать Погоня за любовью через торрент | qTorrent

% Раздел Тема Автор DL S | L
Фильмы 2018 [DVDrip, WEB-DLRip, HDrip] (DUB, MVO) [ 1.32 GB ] Погоня за любовью / Social Animals [2018 WEB-DLRip-AVC] bober100 Скачать
1 | 0
Фильмы (WEB-DL 720p, 1080p) [ 3.37 GB ] Погоня за любовью / Social Animals [2018 WEB-DL 1080p] bober100 Скачать
1 | 0

28-11-2019 20:33  

Отключить всю рекламу на сайте

    Дорогой пользователь! Огромная просьба, поблагодарите релизера, оцените раздачу и оставьте свои комментарий, если Вы скачали Погоня за любовью через торрент бесплатно! Внесите свою лепту в развитие PiratBit!
    Комментировать посты могут только пользователи прошедшие не сложную регистрацию
    Показать сообщения:    

    Погоня за любовью через торрент
    Скачать бесплатно Погоня за любовью
    Погоня за любовью скачать торрент
    Погоня за любовью смотреть онлайн
    Cкачать фильм Погоня за любовью бесплатно
    Погоня за любовью скачать торрент в хорошем качестве
    Погоня за любовью смотреть онлайн бесплатно в хорошем качестве


    Вы не можете начинать темы
    Вы не можете отвечать на сообщения
    Вы не можете редактировать свои сообщения
    Вы не можете удалять свои сообщения
    Вы не можете голосовать в опросах
    Вы не можете прикреплять файлы к сообщениям
    Вы можете скачивать файлы