1 сезон

3 сезон

iTunes

1

Line

MVO

iTunes

13

1 сезон

RePack

30

Deluxe

pack

Лицензия

ВАЖНО

ИГРА 18+

pack

RePack

MK11

RePack

jed

RePack

fifa19

RePack

RDR2

RePack

NEED FOR SPEED™ PAYBACK

4 сезон

9 сезон

Бесстыжие 9 сезон

Все сериалы

все сериалы на PB.wtf

RePack

FAR CRY 5

Anonymous, добрый день, мы катастрофически не успеваем собрать деньги на оплату серверов, помогите нам пожалуйста 5,10,15р., для нас важна любая помощь . В качестве благодарности мы отключим Вам всю рекламу на сайте (укажите свой ник в строку Ваше имя)!

×
  
Magnet ссылка

Человек не сдается (Иосиф Шульман) [1960, СССР, драма, военный, SATRip от AVP Studio] pb.wtf

Человек не сдается через торрент pb.wtf

Размер: 746 MB | Добавлен: 3 года назад | Торрент скачан:20 раз
Скачать  

25-07-2018 15:39 Человек не сдается Скачать торрент  

Человек не сдается
Страна: СССР
Производство: Беларусьфильм

Жанр: драма
Год выпуска: 1958
Продолжительность: 01:20:36

Перевод: Не требуется
Cубтитры: нет
Оригинальная аудиодорожка: русский

Режиссер: Иосиф Шульман

В ролях:
Валентин Буров, Лариса Лужина, Георгий Жжёнов, Валериан Виноградов, Алексей Коротюков, Николай Бармин, Анатолий Соловьёв, Ростислав Шмырёв, Виктор Чекмарёв, Геннадий Некрасов, Роман Филиппов...
Об актёрах подробней

Описание:
Экранизация одноименной повести Ивана Стаднюка.
Молодой политрук Петр Маринин (Валентин Буров) прибыл в свою часть, не успев проститься с невестой. Получив сообщение о приезде Любы (Лариса Лужина), Маринин направляется к ней навстречу, но начинается война, и герой с еще несформировавшейся танковой бригадой принимает первый бой с фашистами. Рискуя жизнью, политрук из-под огня спасает полковое знамя.

Исходник: DVB
Качество видео: SATRip
Формат видео: AVI

Видео: 720x384 (1,85:1), 25,000 кадров/сек, XviD ~ 1092 kbps avg, 0.158 bit/pixel
Аудио: 48 kHz, Dolby Digital AC3 2.0, 192 kbps

Раздача от:
Общее
Полное имя : CHelovek.ne.sdaetsya.1960.SATRip_[New-team]_by_AVP_Studio.avi
Формат : AVI
Формат/Информация : Audio Video Interleave
Размер файла : 746 Мбайт
Продолжительность : 1 ч. 20 м.
Общий поток : 1293 Кбит/сек
Программа кодирования : VirtualDubMod 1.5.10.3 | www.virtualdub-fr.org || (build 2550/release)
Библиотека кодирования : VirtualDubMod build 2550/release

Видео
Идентификатор : 0
Формат : MPEG-4 Visual
Профиль формата : Advanced Simple@L5
Настройки формата : BVOP1 / Custom Matrix
Параметр BVOP формата : 1
Параметр QPel формата : Нет
Параметр GMC формата : Без точки перехода
Параметр матрицы формата : Выборочная
Идентификатор кодека : XVID
Идентификатор кодека/Подсказка : XviD
Продолжительность : 1 ч. 20 м.
Битрейт : 1092 Кбит/сек
Ширина : 720 пикселей
Высота : 384 пикселя
Соотношение сторон : 1,85:1
Частота кадров : 25,000 кадров/сек
Цветовое пространство : YUV
Субдискретизация насыщенности : 4:2:0
Битовая глубина : 8 бит
Тип развёртки : Прогрессивная
Метод сжатия : С потерями
Бит/(Пиксели*Кадры) : 0.158
Размер потока : 629 Мбайт (84%)
Библиотека кодирования : XviD 73

Аудио
Идентификатор : 1
Формат : AC-3
Формат/Информация : Audio Coding 3
Идентификатор кодека : 2000
Продолжительность : 1 ч. 20 м.
Вид битрейта : Постоянный
Битрейт : 192 Кбит/сек
Каналы : 2 канала
Расположение каналов : Front: L R
Частота : 48,0 КГц
Частота кадров : 31,250 кадров/сек (1536 SPF)
Битовая глубина : 16 бит
Метод сжатия : С потерями
Размер потока : 111 Мбайт (15%)
Выравнивание : Разделение по промежуткам
Продолжительность промежутка : 40 мс. (1,00 видеокадр)
Время предзагрузки промежутка : 500 мс
pb.wtf



Скачать Человек не сдается через торрент http://picplus.ru/img/1807/25/e6ef1b94.png Скачать фильм Человек не сдается через торрент бесплантно в хорошем качестве Описание:Экранизация одноименной повести Ивана Стаднюка.Молодой политрук Петр Маринин (Валентин Буров) прибыл в свою часть, не успев ... 5 10 1
Info! Золотая раздача, скачанное не засчитывается.
Торрент: Зарегистрирован [2018-07-25 15:39] · скачан: 20 раз
Статус: √ проверено
Размер: 746 MB
Как cкачать? Как скачать Человек не сдается через торрент | UTorrent

% Раздел Тема Автор DL S | L
Кино СССР [ 1.09 GB ] Человек не сдается [1960 СССР военный SATRip-AVC от AVP Studio] AVP Studio Скачать
1 | 0

28-11-2019 20:33  

Отключить всю рекламу на сайте

    Дорогой пользователь! Огромная просьба, поблагодарите релизера, оцените раздачу и оставьте свои комментарий, если Вы скачали Человек не сдается через торрент бесплатно! Внесите свою лепту в развитие PiratBit!
    Комментировать посты могут только пользователи прошедшие не сложную регистрацию
    Показать сообщения:    

    Человек не сдается через торрент
    Скачать бесплатно Человек не сдается
    Человек не сдается скачать торрент
    Человек не сдается смотреть онлайн
    Cкачать фильм Человек не сдается бесплатно
    Человек не сдается скачать торрент в хорошем качестве
    Человек не сдается смотреть онлайн бесплатно в хорошем качестве


    Вы не можете начинать темы
    Вы не можете отвечать на сообщения
    Вы не можете редактировать свои сообщения
    Вы не можете удалять свои сообщения
    Вы не можете голосовать в опросах
    Вы не можете прикреплять файлы к сообщениям
    Вы можете скачивать файлы