Ссылка на приватное зеркало нашего сайта всего за 1$. Внимание количество ограничено!!!

2 сезон

iTunes

iTunes

1

iTunes

iTunes

iTunes

WEBRip

iTunes

30
pack

Новость дня

ВАЖНО

!!Акция!!

Alien_RageХит недели

RePack

Horizon Zero Dawn

ИГРА 18+

pack

RePack

jed

!!Акция!!

Alien_Rage

RePack

fifa19

RePack

Assassins Creed: Odyssey

RePack

NEED FOR SPEED™ PAYBACK

4 сезон

9 сезон

Бесстыжие 9 сезон

Все сериалы

все сериалы на PB.wtf

RePack

FAR CRY 5
  

Стрельба по мишеням / Downrange (Рюхэй Китамура) [2017 г., Триллер, HDRip, Любительский (многоголосый)] [GreenРай Studio] pb.wtf

Стрельба по мишеням через торрент pb.wtf

Размер: 1.37 GB | Добавлен: 2 года 1 мес. назад | Торрент скачан:88 раз
Скачать  

25-07-2018 17:40 Стрельба по мишеням Скачать торрент  

Стрельба по мишеням / Downrange
Год выпуска: 2017
Страна: США
Жанр: Триллер
Продолжительность: 01:30:28
Перевод: Любительский (многоголосый) | GreenРай Studio
Субтитры: Отсутствуют

Режиссер: Рюхэй Китамура

rating

В ролях: Eric Matuschek, Алекса Йэмс, Kelly Connaire, Стефани Пирсон, Anthony Kirlew, Hana Burson, Икуми Ёсимацу, Джейсон Тобиаш, Rod Hernandez, Aion Boyd

Описание: Группа молодых людей путешествует на автомобиле, когда у них вдруг пробивает колесо. Они делают остановку для замены и попадают под обстрел сумасшедшего снайпера.

Качество: HDRip
Формат: AVI
Видео кодек: XviD
Аудио кодек: AC3
Видео: XviD, 720x304 , 23.9fps, 1706 Kbps
Аудио#1: AC3 , 2 ch , 48 kHz , 448 kbps
скриншот   скриншот   скриншот   скриншот  

Общее
Полное имя : D:Downrange.2017.P.HDRip.1400MB.avi
Формат : AVI
Формат/Информация : Audio Video Interleave
Размер файла : 1,37 Гбайт
Продолжительность : 1 ч. 30 м.
Общий поток : 2163 Кбит/сек
Программа кодирования : VirtualDubMod 1.5.10.2 (build 2540/release)
Библиотека кодирования : VirtualDubMod build 2540/release

Видео
Идентификатор : 0
Формат : MPEG-4 Visual
Профиль формата : Advanced Simple@L5
Параметр BVOP формата : 2
Параметр QPel формата : Нет
Параметр GMC формата : Без точки перехода
Параметр матрицы формата : Default (MPEG)
Идентификатор кодека : XVID
Идентификатор кодека/Подсказка : XviD
Продолжительность : 1 ч. 30 м.
Битрейт : 1706 Кбит/сек
Ширина : 720 пикселей
Высота : 304 пикселя
Соотношение сторон : 2,35:1
Частота кадров : 23,976 кадра/сек
Цветовое пространство : YUV
Субдискретизация насыщенности : 4:2:0
Битовая глубина : 8 бит
Тип развёртки : Прогрессивная
Метод сжатия : С потерями
Бит/(Пиксели*Кадры) : 0.325
Размер потока : 1,08 Гбайт (79%)
Библиотека кодирования : XviD 1.2.1 (UTC 2008-12-04)

Аудио
Идентификатор : 1
Формат : AC-3
Формат/Информация : Audio Coding 3
Расширение режима : CM (complete main)
Параметр Endianness формата : Big
Идентификатор кодека : 2000
Продолжительность : 1 ч. 30 м.
Вид битрейта : Постоянный
Битрейт : 448 Кбит/сек
Каналы : 2 канала
Расположение каналов : Front: L R
Частота : 48,0 КГц
Битовая глубина : 16 бит
Метод сжатия : С потерями
Размер потока : 290 Мбайт (21%)
Выравнивание : Разделение по промежуткам
Продолжительность промежутка : 42 мс. (1,00 видеокадр)
Время предзагрузки промежутка : 500 мс.

pb.wtf



Скачать Стрельба по мишеням через торрент http://pic1.kartinco.top/images/11/a4uky.jpg Скачать фильм Стрельба по мишеням через торрент бесплантно в хорошем качестве Описание: Группа молодых людей путешествует на автомобиле, когда у них вдруг пробивает колесо. Они делают остановку для замены и попадают ... 10 10 5
Info! Золотая раздача, скачанное не засчитывается.
Торрент: Зарегистрирован [2018-07-25 17:40] · скачан: 88 раз
Статус: T временная
Размер: 1.37 GB
Как cкачать? Как скачать Стрельба по мишеням через торрент | qTorrent



Последний раз редактировалось: Скорпион1976 (2018-07-25 20:33), всего редактировалось 2 раз(а)

28-11-2019 20:33  

Отключить всю рекламу на сайте

25-07-2018 17:52 Стрельба по мишеням Скачать торрент  

Когда их транспортное средство недееспособно, группа в ловушке и находится под прицелом сумасшедшего снайпера. Ребята все же в поисках выхода из создавшейся обстановки.

подредактируйте по смыслуpb.wtf



25-07-2018 18:00 Стрельба по мишеням Скачать торрент  

urs писал(а):

Когда их транспортное средство недееспособно, группа в ловушке и находится под прицелом сумасшедшего снайпера. Ребята все же в поисках выхода из создавшейся обстановки.

подредактируйте по смыслу

Да вроде тут поностью понятно,я даже и не знаю что добавить)pb.wtf



25-07-2018 18:08 Стрельба по мишеням Скачать торрент  

Скорпион1976 писал(а):

urs писал(а):

Когда их транспортное средство недееспособно, группа в ловушке и находится под прицелом сумасшедшего снайпера. Ребята все же в поисках выхода из создавшейся обстановки.

подредактируйте по смыслу

Да вроде тут поностью понятно,я даже и не знаю что добавить)

Недееспосо́бность — неспособность гражданина своими действиями приобретать и осуществлять гражданские права, создавать для себя гражданские обязанности и исполнять их. Гражданин признается недееспособным в силу недостижения определенного возраста либо вследствие психического расстройства. pb.wtf



03-02-2019 08:23 Стрельба по мишеням Скачать торрент  

Раздайте пожалуйста кино.pb.wtf



    Дорогой пользователь! Огромная просьба, поблагодарите релизера, оцените раздачу и оставьте свои комментарий, если Вы скачали Стрельба по мишеням через торрент бесплатно! Внесите свою лепту в развитие PiratBit!
    Комментировать посты могут только пользователи прошедшие не сложную регистрацию
    Показать сообщения:    

    Стрельба по мишеням через торрент
    Скачать бесплатно Стрельба по мишеням
    Стрельба по мишеням скачать торрент
    Стрельба по мишеням смотреть онлайн
    Cкачать фильм Стрельба по мишеням бесплатно
    Стрельба по мишеням скачать торрент в хорошем качестве
    Стрельба по мишеням смотреть онлайн бесплатно в хорошем качестве


    Вы не можете начинать темы
    Вы не можете отвечать на сообщения
    Вы не можете редактировать свои сообщения
    Вы не можете удалять свои сообщения
    Вы не можете голосовать в опросах
    Вы не можете прикреплять файлы к сообщениям
    Вы можете скачивать файлы