Ссылка на приватное зеркало нашего сайта всего за 1$. Внимание количество ограничено!!!

2 сезон

iTunes

1 сезон

1

2 сезон

2 сезон

iTunes

1 сезон

RePack

30

Ultimate

ВАЖНО

ИГРА 18+

pack

RePack

MK11
pack

Забери бонус

RePack

jed

!!Акция!!

Alien_Rage

RePack

fifa19

RePack

Assassins Creed: Odyssey

RePack

NEED FOR SPEED™ PAYBACK

4 сезон

9 сезон

Бесстыжие 9 сезон

Все сериалы

все сериалы на PB.wtf

RePack

FAR CRY 5
  

Невидимка / В темноте / In Darkness (Энтони Бирн) [2018, Триллер, WEB-DL 1080p] DUB [iTunes] pb.wtf

Невидимка через торрент pb.wtf

Размер: 4.51 GB | Добавлен: 2 года 4 мес. назад | Торрент скачан:1330 раз
Скачать  

26-07-2018 01:19 Невидимка Скачать торрент  

Невидимка / В темноте / In Darkness
Год выпуска: 2018
Страна: Великобритания, США
Жанр: Триллер
Продолжительность: 01:41:12
Перевод: Дублированный | iTunes

Субтитры: Русские (full), английские

Режиссер: Энтони Бирн

rating

В ролях:

Натали Дормер, Эмили Ратаковски, Эд Скрейн, Джоэли Ричардсон, Джеймс Космо, Нил Мэскелл, Эмбер Андерсон, Ян Бейвут, Бернард Коллако

Описание:

В последнее время слепая пианистка София стала все чаще слышать посторонний мужской голос, доносящийся из квартиры Вероники, её соседки сверху. Очередной визит незнакомца заканчивается ссорой, в процессе которой Вероника выпадает из окна своей квартиры и погибает. Полиция предполагает, что девушка совершила самоубийство, и лишь София догадывается, что же произошло на самом деле. Она оказывается втянута в опасную игру, в которой замешаны международные преступники и мафия, вот только они еще не знают, что у девушки на этот счет уже есть свои планы...

Качество: WEB-DL 1080p
Формат: MKV

Видео: MPEG-4 AVC, 1920x800, 5359 Kbit/s, 23.976 fps
Аудио#1: 48 kHz, AC3, 5.1, 384 Kbps | iTunes | RUS |скриншот  
Аудио#2: 48 kHz, E-AC3, 5.1, 640 Kbps | Оригинал | ENG |
скриншот  
скриншот  скриншот  скриншот  скриншот  скриншот  

General
Unique ID : 231467858354115358840796303450907134052 (0xAE231684552E9635BE7FEAB83B9CC864)
Complete name : D:Video111In.Darkness.2018.AMZN.WEB-DL.1080p.ExKinoRay.mkv
Format : Matroska
Format version : Version 4 / Version 2
File size : 4.51 GiB
Duration : 1 h 41 min
Overall bit rate mode : Variable
Overall bit rate : 6 385 kb/s
Movie name : In Darkness 2018 from ExKinoRay
Encoded date : UTC 2018-07-25 21:44:47
Writing application : mkvmerge v7.3.0 ('Nouages') 64bit built on Oct 22 2014 18:53:34
Writing library : libebml v1.3.0 + libmatroska v1.4.1

Video
ID : 1
Format : AVC
Format/Info : Advanced Video Codec
Format profile : High@L4
Format settings : CABAC / 4 Ref Frames
Format settings, CABAC : Yes
Format settings, ReFrames : 4 frames
Codec ID : V_MPEG4/ISO/AVC
Duration : 1 h 41 min
Bit rate mode : Variable
Bit rate : 5 359 kb/s
Maximum bit rate : 15.0 Mb/s
Width : 1 920 pixels
Height : 800 pixels
Display aspect ratio : 2.40:1
Frame rate mode : Constant
Frame rate : 23.976 (24000/1001) FPS
Color space : YUV
Chroma subsampling : 4:2:0
Bit depth : 8 bits
Scan type : Progressive
Bits/(Pixel*Frame) : 0.146
Stream size : 3.79 GiB (84%)
Language : English
Default : Yes
Forced : No
Color range : Limited
Color primaries : BT.709
Transfer characteristics : BT.709
Matrix coefficients : BT.709

Audio #1
ID : 2
Format : AC-3
Format/Info : Audio Coding 3
Codec ID : A_AC3
Duration : 1 h 41 min
Bit rate mode : Constant
Bit rate : 384 kb/s
Channel(s) : 6 channels
Channel positions : Front: L C R, Side: L R, LFE
Sampling rate : 48.0 kHz
Frame rate : 31.250 FPS (1536 SPF)
Bit depth : 16 bits
Compression mode : Lossy
Stream size : 278 MiB (6%)
Title : iTunes
Language : Russian
Service kind : Complete Main
Default : Yes
Forced : Yes

Audio #2
ID : 3
Format : E-AC-3
Format/Info : Enhanced Audio Coding 3
Codec ID : A_EAC3
Duration : 1 h 41 min
Bit rate mode : Constant
Bit rate : 640 kb/s
Channel(s) : 6 channels
Channel positions : Front: L C R, Side: L R, LFE
Sampling rate : 48.0 kHz
Frame rate : 187.500 FPS (256 SPF)
Compression mode : Lossy
Stream size : 463 MiB (10%)
Title : Original
Language : English
Service kind : Complete Main
Default : No
Forced : No

Text #1
ID : 4
Format : UTF-8
Codec ID : S_TEXT/UTF8
Codec ID/Info : UTF-8 Plain Text
Duration : 1 h 33 min
Bit rate : 64 b/s
Count of elements : 828
Stream size : 44.2 KiB (0%)
Title : Full
Language : Russian
Default : No
Forced : No

Text #2
ID : 5
Format : UTF-8
Codec ID : S_TEXT/UTF8
Codec ID/Info : UTF-8 Plain Text
Duration : 1 h 33 min
Bit rate : 38 b/s
Count of elements : 839
Stream size : 26.5 KiB (0%)
Title : Full
Language : English
Default : No
Forced : No

Text #3
ID : 6
Format : UTF-8
Codec ID : S_TEXT/UTF8
Codec ID/Info : UTF-8 Plain Text
Duration : 1 h 34 min
Bit rate : 39 b/s
Count of elements : 912
Stream size : 27.6 KiB (0%)
Title : SDH
Language : English
Default : No
Forced : No

Menu
00:00:00.000 : en:Chapter 1
00:06:30.139 : en:Chapter 2
00:12:33.461 : en:Chapter 3
00:17:43.562 : en:Chapter 4
00:23:38.250 : en:Chapter 5
00:28:46.641 : en:Chapter 6
00:36:22.722 : en:Chapter 7
00:42:06.357 : en:Chapter 8
00:48:10.012 : en:Chapter 9
00:54:41.861 : en:Chapter 10
00:59:12.298 : en:Chapter 11
01:05:19.707 : en:Chapter 12
01:09:29.665 : en:Chapter 13
01:16:00.764 : en:Chapter 14
01:22:38.370 : en:Chapter 15
01:27:33.456 : en:Chapter 16

pb.wtf



Скачать Невидимка через торрент https://img11.lostpic.net/2018/07/26/780748a92d0643df298778314d73f87d.jpg Скачать фильм Невидимка через торрент бесплантно в хорошем качестве Описание: В последнее время слепая пианистка София стала все чаще слышать посторонний мужской голос, доносящийся из квартиры Вероники, её ... 9.7 10 26
Info! Золотая раздача, скачанное не засчитывается.
Торрент: Зарегистрирован [2018-07-26 01:19] · скачан: 1 330 раз
Статус: √ проверено
Размер: 4.51 GB
Как cкачать? Как скачать Невидимка через торрент | qTorrent

% Раздел Тема Автор DL S | L
Фильмы 2018 [DVDrip, WEB-DLRip, HDrip] (DUB, MVO) [ 1.42 GB ] Невидимка / В темноте / In Darkness [2018 BDRip] - Twi7ter Скачать
2 | 0
Фильмы (Blu-ray, BD-Remux, HDDVD) [ 23.94 GB ] Невидимка / В темноте / In Darkness [2018 BDRemux 1080p] sheker187 Скачать
1 | 0
Фильмы [HD 720p, 1080p] (Хороший звук DUB, MVO) [ 8.63 GB ] Невидимка / В темноте / In Darkness [2018 BDRip 1080p] bober100 Скачать
1 | 0
Фильмы 2018 [DVDrip, WEB-DLRip, HDrip] (DUB, MVO) [ 1.46 GB ] Невидимка / В темноте / In Darkness [2018 HDRip] bober100 Скачать
2 | 0
Фильмы 2018 [DVDrip, WEB-DLRip, HDrip] (DUB, MVO) [ 746 MB ] Невидимка / В темноте / In Darkness [2018 HDRip] bober100 Скачать
1 | 0

28-11-2019 20:33  

Отключить всю рекламу на сайте

26-07-2018 15:18 Невидимка Скачать торрент  

стоит смотреть?pb.wtf



28-07-2018 07:59 Невидимка Скачать торрент  

как кено?pb.wtf



29-07-2018 07:31 Невидимка Скачать торрент  

Не плохой фильм мне понравился 4 из 5 автору спс.pb.wtf



23-08-2018 17:29 Невидимка Скачать торрент  


Парадокс не иначе!!!pb.wtf



23-08-2018 18:02 Невидимка Скачать торрент  

Demon83666 писал(а):


Парадокс не иначе!!!

Развод, не иначе)))
А вообще да, это просто жуть, с этими "заработками"!pb.wtf



23-08-2018 21:09 Невидимка Скачать торрент  

Demon83666 писал(а):


Парадокс не иначе!!!

pb.wtf



26-08-2018 14:21 Невидимка Скачать торрент  

Сильный фильм!!! Смотрите!!!pb.wtf



27-08-2018 08:26 Невидимка Скачать торрент  

нормальный фильмpb.wtf



    Дорогой пользователь! Огромная просьба, поблагодарите релизера, оцените раздачу и оставьте свои комментарий, если Вы скачали Невидимка через торрент бесплатно! Внесите свою лепту в развитие PiratBit!
    Комментировать посты могут только пользователи прошедшие не сложную регистрацию
    Показать сообщения:    

    Невидимка через торрент
    Скачать бесплатно Невидимка
    Невидимка скачать торрент
    Невидимка смотреть онлайн
    Cкачать фильм Невидимка бесплатно
    Невидимка скачать торрент в хорошем качестве
    Невидимка смотреть онлайн бесплатно в хорошем качестве


    Вы не можете начинать темы
    Вы не можете отвечать на сообщения
    Вы не можете редактировать свои сообщения
    Вы не можете удалять свои сообщения
    Вы не можете голосовать в опросах
    Вы не можете прикреплять файлы к сообщениям
    Вы можете скачивать файлы