Ссылка на приватное зеркало нашего сайта всего за 1$. Внимание количество ограничено!!!

2 сезон

iTunes

1 сезон

1

2 сезон

2 сезон

iTunes

1 сезон

RePack

30

Новинка

ВАЖНО

ИГРА 18+

pack

RePack

MK11
pack

Забери бонус

RePack

jed

!!Акция!!

Alien_Rage

RePack

fifa19

RePack

Assassins Creed: Odyssey

RePack

NEED FOR SPEED™ PAYBACK

4 сезон

9 сезон

Бесстыжие 9 сезон

Все сериалы

все сериалы на PB.wtf

RePack

FAR CRY 5
  

Инсомния / No dormirás (Густаво Эрнандес) [2018, ужасы, триллер, детектив, WEB-DL 1080p] DUB [iTunes] pb.wtf

Инсомния через торрент pb.wtf

Раздают: 1 [ 0 KB/s ]
Размер: 3.65 GB | Добавлен: 2 года 4 мес. назад | Торрент скачан:1027 раз
Скачать  

26-07-2018 03:43 Инсомния Скачать торрент  

Инсомния / No dormirás
Год выпуска: 2018
Страна: Испания, Аргентина, Уругвай
Жанр: ужасы, триллер, детектив
Продолжительность: 01:46:22
Перевод: Дублированный | iTunes
Субтитры: отсутствуют

Режиссер: Густаво Эрнандес

rating

В ролях:

Белен Руэда, Эва Кватрокки, Наталия де Молина, Герман Палашиос, Эухения Тобаль, Хуан Мануэль Гилера, Мария Забай, Мигель Анхель Масиэль, Сюзана Орнос, Мария Альфонса Россо

Описание:

В заброшенную психиатрическую клинику приезжает новаторская театральная труппа, чтобы отрепетировать пьесу, написанную пациентами клиники много лет назад. Одно из условий - актеры должны отказаться от сна. Постепенно их восприятие реальности начинает меняться. Они сталкиваются с потусторонними силами, которые подталкивают их к жестокой и трагической развязке, описанной в пьесе.

Качество: WEB-DL 1080p
Формат: MKV

Видео: MPEG-4 AVC, 1920x858, 4525 Kbit/s, 24.000 fps
Аудио: 48 kHz, AC3, 5.1, 384 Kbps | iTunes | RUS |
скриншот  
скриншот  скриншот  скриншот  скриншот  скриншот  

General
Unique ID : 182504928498761474202032212034164929538 (0x894D2BB1A53008A2B4D3C1E3D80CB402)
Complete name : D:Video111No.dormiras.2018.WEB-DL.1080p.ExKinoRay.mkv
Format : Matroska
Format version : Version 4 / Version 2
File size : 3.65 GiB
Duration : 1 h 46 min
Overall bit rate : 4 910 kb/s
Movie name : No dormirás 2018 from ExKinoRay
Encoded date : UTC 2018-07-26 01:58:52
Writing application : mkvmerge v7.3.0 ('Nouages') 64bit built on Oct 22 2014 18:53:34
Writing library : libebml v1.3.0 + libmatroska v1.4.1

Video
ID : 1
Format : AVC
Format/Info : Advanced Video Codec
Format profile : High@L4
Format settings : CABAC / 5 Ref Frames
Format settings, CABAC : Yes
Format settings, ReFrames : 5 frames
Codec ID : V_MPEG4/ISO/AVC
Duration : 1 h 46 min
Bit rate : 4 525 kb/s
Width : 1 920 pixels
Height : 858 pixels
Display aspect ratio : 2.25:1
Frame rate mode : Constant
Frame rate : 24.000 FPS
Color space : YUV
Chroma subsampling : 4:2:0
Bit depth : 8 bits
Scan type : Progressive
Bits/(Pixel*Frame) : 0.114
Stream size : 3.36 GiB (92%)
Language : English
Default : Yes
Forced : No
Color range : Limited
Color primaries : BT.709
Transfer characteristics : BT.709
Matrix coefficients : BT.709

Audio
ID : 2
Format : AC-3
Format/Info : Audio Coding 3
Codec ID : A_AC3
Duration : 1 h 46 min
Bit rate mode : Constant
Bit rate : 384 kb/s
Channel(s) : 6 channels
Channel positions : Front: L C R, Side: L R, LFE
Sampling rate : 48.0 kHz
Frame rate : 31.250 FPS (1536 SPF)
Bit depth : 16 bits
Compression mode : Lossy
Stream size : 292 MiB (8%)
Title : iTunes
Language : Russian
Service kind : Complete Main
Default : Yes
Forced : Yes

Menu
00:00:00.000 : en:Глава 1
00:06:18.958 : en:Глава 2
00:12:00.249 : en:Глава 3
00:18:27.540 : en:Глава 4
00:24:44.873 : en:Глава 5
00:29:41.706 : en:Глава 6
00:37:48.831 : en:Глава 7
00:45:11.414 : en:Глава 8
00:51:59.622 : en:Глава 9
00:58:09.205 : en:Глава 10
01:05:37.205 : en:Глава 11
01:14:03.621 : en:Глава 12
01:20:48.496 : en:Глава 13
01:27:02.037 : en:Глава 14
01:33:51.078 : en:Глава 15

pb.wtf



Скачать Инсомния через торрент https://d.radikal.ru/d23/1807/12/05680b2e720d.png Скачать фильм Инсомния через торрент бесплантно в хорошем качестве Описание: В заброшенную психиатрическую клинику приезжает новаторская театральная труппа, чтобы отрепетировать пьесу, написанную пациентами ... 9.3 10 20
Info! Золотая раздача, скачанное не засчитывается.
Торрент: Зарегистрирован [2018-07-26 03:43] · скачан: 1 027 раз
Статус: √ проверено
Размер: 3.65 GB
Как cкачать? Как скачать Инсомния через торрент | qTorrent

% Раздел Тема Автор DL S | L
Фильмы 2018 [DVDrip, WEB-DLRip, HDrip] (DUB, MVO) [ 1.46 GB ] Инсомния / No dormirás [2018 WEB-DLRip-AVC] bober100 Скачать
3 | 0
Фильмы 2018 [DVDrip, WEB-DLRip, HDrip] (DUB, MVO) [ 745 MB ] Инсомния / No dormirás [2018 WEB-DLRip] bober100 Скачать
1 | 0
Фильмы 2018 [DVDrip, WEB-DLRip, HDrip] (DUB, MVO) [ 1.46 GB ] Инсомния / No dormirás [2018 WEB-DLRip] bober100 Скачать
1 | 0

28-11-2019 20:33  

Отключить всю рекламу на сайте

26-07-2018 11:09 Инсомния Скачать торрент  

Фигня полнаяpb.wtf



    Дорогой пользователь! Огромная просьба, поблагодарите релизера, оцените раздачу и оставьте свои комментарий, если Вы скачали Инсомния через торрент бесплатно! Внесите свою лепту в развитие PiratBit!
    Комментировать посты могут только пользователи прошедшие не сложную регистрацию
    Показать сообщения:    

    Инсомния через торрент
    Скачать бесплатно Инсомния
    Инсомния скачать торрент
    Инсомния смотреть онлайн
    Cкачать фильм Инсомния бесплатно
    Инсомния скачать торрент в хорошем качестве
    Инсомния смотреть онлайн бесплатно в хорошем качестве


    Вы не можете начинать темы
    Вы не можете отвечать на сообщения
    Вы не можете редактировать свои сообщения
    Вы не можете удалять свои сообщения
    Вы не можете голосовать в опросах
    Вы не можете прикреплять файлы к сообщениям
    Вы можете скачивать файлы