новый адрес
Ссылка на приватное зеркало всего за 1$. Внимание количество ограничено!!!

iTunes

1+1

iTunes

мы

iTunes

1

iTunes

Чернобыль

iTunes

Ральф против интернета

Лицензия

ПШазам

Лицензия

Оно 2

Лицензия

30
pack

Вам бонус

ВАЖНО

!!Акция!!

Alien_RageХит недели

RePack

Resident Evil 21

ИГРА 18+

pack

RePack

jed

!!Акция!!

Alien_Rage

RePack

fifa19

RePack

Assassins Creed: Odyssey

RePack

NEED FOR SPEED™ PAYBACK

3 сезон

9 сезон

Бесстыжие 9 сезон

Все сериалы

все сериалы на PB.wtf

RePack

FAR CRY 5
Ребята, катастрофически не хватает 1900р. для оплаты серверов за Октябрь (всвязи с блокировками трафик упал в 3 раза), 1-2р., выручайте.
  

Погоня за любовью / Social Animals (Тереза Беннетт) [2018, комедия, WEB-DLRip-AVC] DUB [iTunes] pb.wtf

Погоня за любовью через торрент pb.wtf

Раздают: 1 [ 0 KB/s ]
Размер: 1.32 GB | Добавлен: 1 год 4 мес. назад | Торрент скачан:137 раз
Скачать  

26-07-2018 04:01 Погоня за любовью Скачать торрент  

Погоня за любовью / Social Animals
Год выпуска: 2018
Страна: США
Жанр: комедия
Продолжительность: 01:23:43
Перевод: Дублированный | iTunes
Субтитры: Английские (полные, SDH)

Режиссер: Тереза Беннетт

rating

В ролях:

Самира Уайли, Карли Чаикин, Джош Рэднор, Ая Кэш, Ноэль Кристи Уэллс, Фортун Феймстер, Адам Шапиро, Шарлотта Делани Риггс, Гари Тиг, Брэйден Скотт, Шэйн Якобсен, Тристан Риггс, Джеймс Хэл Харди, Минди Рэймонд, Карлтон Кодл, Коулмэн Лэннам, Натали Холмс, Рико Леброн, Клэр Райли

Описание:

Так уж вышло, что в жизни Зои Крэндл ничего не складывается. Из квартиры выселяют, бизнес идет ко дну, в личной жизни дальше романов на одну ночь не продвигается. И когда, как казалось, всё идет под откос, она встречает симпатягу-неудачника Пола. Между ними сразу возникает связь. Но есть одна проблема: Пол женат. Зои вместе с подругой разрабатывает план, который поможет спасти бизнес и устроить личную жизнь.

Качество: WEB-DLRip-AVC
Формат: MKV

Видео: 1024x424 (2.40:1), 23,976 fps, x264 ~1 493 kbps avg, 0.143 bit/pixel
Аудио#1: 48 kHz, AC3 Dolby Digital, 3/2 (L,C,R,l,r) + LFE ch, ~384.00 kbps avg | RUS (iTunes)
Аудио#2: 48 kHz, AC3 Dolby Digital, 3/2 (L,C,R,l,r) + LFE ch, ~384.00 kbps avg | ENG
скриншот  скриншот  скриншот  скриншот  скриншот  

Общее
Уникальный идентификатор : 38454363344416771881057903787656537260 (0x1CEE0A7E0A8B5BFADDB091A2D16EE4AC)
Полное имя : F:\OlLanDGroup\Social.Animals.2018.WEB-DLRip(AVC).OlLanDGroup.mkv
Формат : Matroska
Версия формата : Version 4 / Version 2
Размер файла : 1,32 Гбайт
Продолжительность : 1 ч. 23 м.
Общий поток : 2263 Кбит/сек
Название фильма : Social.Animals.2018 #TorpedoUK#
Дата кодирования : UTC 2018-07-26 03:06:51
Программа кодирования : mkvmerge v25.0.0 ('Prog Noir') 64-bit
Библиотека кодирования : libebml v1.3.6 + libmatroska v1.4.9

Видео
Идентификатор : 1
Формат : AVC
Формат/Информация : Advanced Video Codec
Профиль формата : High@L4.1
Параметр CABAC формата : Да
Параметр ReFrames формата : 10 кадров
Идентификатор кодека : V_MPEG4/ISO/AVC
Продолжительность : 1 ч. 23 м.
Битрейт : 1493 Кбит/сек
Ширина : 1024 пикселя
Высота : 424 пикселя
Соотношение сторон : 2,40:1
Режим частоты кадров : Постоянный
Частота кадров : 23,976 (24000/1001) кадра/сек
Цветовое пространство : YUV
Субдискретизация насыщенности : 4:2:0
Битовая глубина : 8 бит
Тип развёртки : Прогрессивная
Бит/(Пиксели*Кадры) : 0.143
Размер потока : 891 Мбайт (66%)
Библиотека кодирования : x264 core 146 r2538 121396c
Настройки программы : cabac=1 / ref=10 / deblock=1:-2:-3 / analyse=0x3:0x113 / me=umh / subme=11 / psy=1 / psy_rd=0.97:0.07 / mixed_ref=1 / me_range=48 / chroma_me=1 / trellis=2 / 8x8dct=1 / cqm=0 / deadzone=21,11 / fast_pskip=1 / chroma_qp_offset=-3 / threads=6 / lookahead_threads=1 / sliced_threads=0 / nr=0 / decimate=1 / interlaced=0 / bluray_compat=0 / constrained_intra=0 / bframes=10 / b_pyramid=2 / b_adapt=2 / b_bias=0 / direct=3 / weightb=1 / open_gop=0 / weightp=2 / keyint=240 / keyint_min=23 / scenecut=40 / intra_refresh=0 / rc_lookahead=40 / rc=2pass / mbtree=1 / bitrate=1493 / ratetol=1.0 / qcomp=0.60 / qpmin=0 / qpmax=69 / qpstep=4 / cplxblur=20.0 / qblur=0.5 / vbv_maxrate=50000 / vbv_bufsize=62500 / nal_hrd=none / filler=0 / ip_ratio=1.40 / aq=1:1.00
Язык : English
Default : Да
Forced : Нет

Аудио #1
Идентификатор : 2
Формат : AC-3
Формат/Информация : Audio Coding 3
Расширение режима : CM (complete main)
Параметр Endianness формата : Big
Идентификатор кодека : A_AC3
Продолжительность : 1 ч. 23 м.
Вид битрейта : Постоянный
Битрейт : 384 Кбит/сек
Каналы : 6 каналов
Расположение каналов : Front: L C R, Side: L R, LFE
Частота : 48,0 КГц
Частота кадров : 31,250 кадров/сек (1536 spf)
Битовая глубина : 16 бит
Метод сжатия : С потерями
Размер потока : 229 Мбайт (17%)
Заголовок : iTunes
Язык : Russian
Default : Да
Forced : Нет

Аудио #2
Идентификатор : 3
Формат : AC-3
Формат/Информация : Audio Coding 3
Расширение режима : CM (complete main)
Параметр Endianness формата : Big
Идентификатор кодека : A_AC3
Продолжительность : 1 ч. 23 м.
Вид битрейта : Постоянный
Битрейт : 384 Кбит/сек
Каналы : 6 каналов
Расположение каналов : Front: L C R, Side: L R, LFE
Частота : 48,0 КГц
Частота кадров : 31,250 кадров/сек (1536 spf)
Битовая глубина : 16 бит
Метод сжатия : С потерями
Размер потока : 229 Мбайт (17%)
Заголовок : Original
Язык : English
Default : Нет
Forced : Нет

Текст #1
Идентификатор : 4
Формат : UTF-8
Идентификатор кодека : S_TEXT/UTF8
Идентификатор кодека/Информация : UTF-8 Plain Text
Продолжительность : 1 ч. 23 м.
Битрейт : 67 бит/сек
Count of elements : 1293
Размер потока : 40,8 Кбайт (0%)
Заголовок : Full
Язык : English
Default : Нет
Forced : Нет

Текст #2
Идентификатор : 5
Формат : UTF-8
Идентификатор кодека : S_TEXT/UTF8
Идентификатор кодека/Информация : UTF-8 Plain Text
Продолжительность : 1 ч. 23 м.
Битрейт : 70 бит/сек
Count of elements : 1377
Размер потока : 43,2 Кбайт (0%)
Заголовок : SDH
Язык : English
Default : Нет
Forced : Нет

pb.wtf



Скачать Погоня за любовью через торрент https://a.radikal.ru/a36/1807/10/ae8878f43ba3.png Скачать фильм Погоня за любовью через торрент бесплантно в хорошем качестве Описание: Так уж вышло, что в жизни Зои Крэндл ничего не складывается. Из квартиры выселяют, бизнес идет ко дну, в личной жизни дальше ... 8.6 10 5
Торрент: Зарегистрирован [2018-07-26 04:01] · скачан: 137 раз
Статус: √ проверено
Размер: 1.32 GB
Как cкачать? Как скачать Погоня за любовью через торрент | qTorrent

% Раздел Тема Автор DL S | L
Фильмы (WEB-DL 720p, 1080p) [ 3.37 GB ] Погоня за любовью / Social Animals [2018 WEB-DL 1080p] bober100 Скачать
1 | 0
Фильмы 2018 [DVDrip, WEB-DLRip, HDrip] (DUB, MVO) [ 1.46 GB ] Погоня за любовью / Social Animals [2018 WEB-DLRip ] oleg8 Скачать
1 | 0
Отключить всю рекламу на сайте
    Дорогой пользователь! Огромная просьба, поблагодарите релизера, оцените раздачу и оставьте свои комментарий, если Вы скачали Погоня за любовью через торрент бесплатно! Внесите свою лепту в развитие PiratBit!
    Комментировать посты могут только пользователи прошедшие не сложную регистрацию
    Показать сообщения:    

    Погоня за любовью через торрент
    Скачать бесплатно Погоня за любовью
    Погоня за любовью скачать торрент
    Погоня за любовью смотреть онлайн
    Cкачать фильм Погоня за любовью бесплатно
    Погоня за любовью скачать торрент в хорошем качестве
    Погоня за любовью смотреть онлайн бесплатно в хорошем качестве


    Вы не можете начинать темы
    Вы не можете отвечать на сообщения
    Вы не можете редактировать свои сообщения
    Вы не можете удалять свои сообщения
    Вы не можете голосовать в опросах
    Вы не можете прикреплять файлы к сообщениям
    Вы можете скачивать файлы