MEGA NEWS Получи личный уникальный адрес сайта и защити себя от блокировок. Внимание количество ограничено!!!

iTunes

1+1

iTunes

мы

iTunes

1

iTunes

Чернобыль

iTunes

Ральф против интернета

Лицензия

ПШазам

Лицензия

Игра престолов

Лицензия

30
pack

ВАЖНО

!!Акция!!

Alien_RageХит недели

RePack

Resident Evil 21

ИГРА 18+

pack

RePack

Metro:Exodus

!!Акция!!

Alien_Rage

RePack

fifa19

RePack

Assassins Creed: Odyssey

RePack

NEED FOR SPEED™ PAYBACK

3 сезон

9 сезон

Бесстыжие 9 сезон

Все сериалы

все сериалы на PB.wtf

RePack

FAR CRY 5
Ребята, катастрофически не хватает 1900р. для оплаты серверов за АВГУСТ (всвязи с блокировками трафик упал в 3 раза), 1-2р., выручайте.
  

Предложение / The Proposal (Энн Флетчер) [2009, Комедия, мелодрама, драма, BDRip 1080p] DUB pb.wtf

Предложение через торрент pb.wtf

Раздают: 3 [ 83 KB/s ]
Размер: 7.76 GB | Добавлен: 1 год 2 мес. назад | Торрент скачан:175 раз
Скачать  

26-07-2018 07:13 Предложение Скачать торрент  

Предложение / The Proposal


Информация о фильме

Год выхода: 2009

Жанр: комедия, мелодрама, драма

Выпущено: США

Студия: Touchstone Pictures, Mandeville Films

Продолжительность: 01:47:47

Перевод: Дублированный (лицензия) + Украинский + Оригинал

Субтитры: Русские (Forced), Русские, Украинские (Forced), Украинские, Английские

Режиссер: Энн Флетчер

В ролях: Сандра Буллок, Райан Рейнольдс, Мэри Стинберген, Крэйг Т. Нельсон, Бетти Уайт, Дэнис О`Харе, Малин Акерман, Оскар Нунез, Аасиф Мандви, Майкл Нури

О фильме:

Главная героиня фильма — ответственная начальница, которой грозит высылка в Канаду. Ради того, чтобы избежать ссылки в край озер, героиня готова на все — даже фиктивно выскочить замуж за своего молодого ассистента.



Файл

Кодек: x264

Качество: BDRip (источник: Blu-ray Disc)

Видео: 1920x800 (2,40:1), 23.976 fps, 8386 kbps

Аудио #1: AC-3, 6 ch, 640 kbps (Rus)

Аудио #2: AC-3, 6 ch, 640 kbps (Ukr)

Аудио #3: AC-3, 6 ch, 640 kbps (Eng)

Скачать: семпл
скриншот  скриншот  скриншот  скриншот  
Общее

Уникальный идентификатор : 198916119840960860437541137505565388250 (0x95A5D9E5C5CD776995F4C8171911ADDA)

Полное имя : E:The.Proposal.2009.BDRip.1080p.Rus.Ukr.Eng.mkv

Формат : Matroska

Версия формата : Version 2

Размер файла : 7,76 Гбайт

Продолжительность : 1 ч. 47 м.

Общий поток : 10,3 Мбит/сек

Название фильма : Предложение / The Proposal (2009)

Дата кодирования : UTC 2013-09-23 19:13:06

Программа кодирования : mkvmerge v5.8.0 ('No Sleep / Pillow') built on Sep 2 2012 15:37:04

Библиотека кодирования : libebml v1.2.3 + libmatroska v1.3.0

Attachment : Yes

Видео

Идентификатор : 1

Формат : AVC

Формат/Информация : Advanced Video Codec

Профиль формата : High@L4.1

Параметр CABAC формата : Да

Параметр ReFrames формата : 5 кадров

Идентификатор кодека : V_MPEG4/ISO/AVC

Продолжительность : 1 ч. 47 м.

Битрейт : 8386 Кбит/сек

Ширина : 1920 пикселей

Высота : 800 пикселей

Соотношение сторон : 2,40:1

Режим частоты кадров : Постоянный

Частота кадров : 23,976 кадра/сек

Цветовое пространство : YUV

Субдискретизация насыщенности : 4:2:0

Битовая глубина : 8 бит

Тип развёртки : Прогрессивная

Бит/(Пиксели*Кадры) : 0.228

Размер потока : 6,16 Гбайт (79%)

Заголовок : Release by N1NT3NDO

Библиотека кодирования : x264 core 138 r2358 9e941d1

Настройки программы : cabac=1 / ref=5 / deblock=1:-3:-3 / analyse=0x3:0x133 / me=umh / subme=10 / psy=1 / psy_rd=1.00:0.00 / mixed_ref=1 / me_range=32 / chroma_me=1 / trellis=2 / 8x8dct=1 / cqm=0 / deadzone=21,11 / fast_pskip=0 / chroma_qp_offset=-2 / threads=12 / lookahead_threads=1 / sliced_threads=0 / nr=0 / decimate=0 / interlaced=0 / bluray_compat=0 / constrained_intra=0 / bframes=6 / b_pyramid=2 / b_adapt=2 / b_bias=0 / direct=3 / weightb=1 / open_gop=0 / weightp=2 / keyint=240 / keyint_min=23 / scenecut=40 / intra_refresh=0 / rc_lookahead=80 / rc=2pass / mbtree=0 / bitrate=8386 / ratetol=1.0 / qcomp=0.60 / qpmin=0 / qpmax=69 / qpstep=4 / cplxblur=20.0 / qblur=0.5 / vbv_maxrate=50000 / vbv_bufsize=62500 / nal_hrd=none / ip_ratio=1.40 / pb_ratio=1.30 / aq=1:1.00

Язык : English

Default : Да

Forced : Нет

Аудио #1

Идентификатор : 2

Формат : AC-3

Формат/Информация : Audio Coding 3

Расширение режима : CM (complete main)

Параметр Endianness формата : Big

Идентификатор кодека : A_AC3

Продолжительность : 1 ч. 47 м.

Вид битрейта : Постоянный

Битрейт : 640 Кбит/сек

Каналы : 6 каналов

Расположение каналов : Front: L C R, Side: L R, LFE

Частота : 48,0 КГц

Битовая глубина : 16 бит

Метод сжатия : С потерями

Размер потока : 493 Мбайт (6%)

Заголовок : Rus

Язык : Russian

Default : Да

Forced : Нет

Аудио #2

Идентификатор : 3

Формат : AC-3

Формат/Информация : Audio Coding 3

Расширение режима : CM (complete main)

Параметр Endianness формата : Big

Идентификатор кодека : A_AC3

Продолжительность : 1 ч. 47 м.

Вид битрейта : Постоянный

Битрейт : 640 Кбит/сек

Каналы : 6 каналов

Расположение каналов : Front: L C R, Side: L R, LFE

Частота : 48,0 КГц

Битовая глубина : 16 бит

Метод сжатия : С потерями

Размер потока : 493 Мбайт (6%)

Заголовок : Ukr

Язык : Ukrainian

Default : Нет

Forced : Нет

Аудио #3

Идентификатор : 4

Формат : AC-3

Формат/Информация : Audio Coding 3

Расширение режима : CM (complete main)

Параметр Endianness формата : Big

Идентификатор кодека : A_AC3

Продолжительность : 1 ч. 47 м.

Вид битрейта : Постоянный

Битрейт : 640 Кбит/сек

Каналы : 6 каналов

Расположение каналов : Front: L C R, Side: L R, LFE

Частота : 48,0 КГц

Битовая глубина : 16 бит

Метод сжатия : С потерями

Размер потока : 493 Мбайт (6%)

Заголовок : Eng

Язык : English

Default : Нет

Forced : Нет

Текст #1

Идентификатор : 5

Формат : UTF-8

Идентификатор кодека : S_TEXT/UTF8

Идентификатор кодека/Информация : UTF-8 Plain Text

Заголовок : Rus (Forced)

Язык : Russian

Default : Нет

Forced : Нет

Текст #2

Идентификатор : 6

Формат : UTF-8

Идентификатор кодека : S_TEXT/UTF8

Идентификатор кодека/Информация : UTF-8 Plain Text

Заголовок : Rus

Язык : Russian

Default : Нет

Forced : Нет

Текст #3

Идентификатор : 7

Формат : UTF-8

Идентификатор кодека : S_TEXT/UTF8

Идентификатор кодека/Информация : UTF-8 Plain Text

Заголовок : Ukr (Forced)

Язык : Ukrainian

Default : Нет

Forced : Нет

Текст #4

Идентификатор : 8

Формат : UTF-8

Идентификатор кодека : S_TEXT/UTF8

Идентификатор кодека/Информация : UTF-8 Plain Text

Заголовок : Ukr

Язык : Ukrainian

Default : Нет

Forced : Нет

Текст #5

Идентификатор : 9

Формат : UTF-8

Идентификатор кодека : S_TEXT/UTF8

Идентификатор кодека/Информация : UTF-8 Plain Text

Заголовок : Eng

Язык : English

Default : Нет

Forced : Нет

Меню

00:00:00.000 : :Chapter 01

00:08:55.535 : :Chapter 02

00:19:23.871 : :Chapter 03

00:29:32.103 : :Chapter 04

00:37:17.401 : :Chapter 05

00:47:06.615 : :Chapter 06

00:56:31.137 : :Chapter 07

01:06:25.898 : :Chapter 08

01:17:55.170 : :Chapter 09

01:25:32.418 : :Chapter 10

01:37:40.980 : :Chapter 11

01:43:02.426 : :Chapter 12

01:47:47.252 : :Chapter 13
x264 [info]: frame I:1479 Avg QP:17.71 size:204986

x264 [info]: frame P:33014 Avg QP:18.52 size: 84611

x264 [info]: frame B:120572 Avg QP:20.24 size: 30081

x264 [info]: consecutive B-frames: 1.9% 2.8% 10.5% 11.1% 16.1% 52.6% 5.0%
pb.wtf



Скачать Предложение через торрент https://d.radikal.ru/d27/1807/cd/b158f3491182.jpg Скачать фильм Предложение через торрент бесплантно в хорошем качестве О фильме:Главная героиня фильма — ответственная начальница, которой грозит высылка в Канаду. Ради того, чтобы избежать ссылки в край озер, ... 9.8 10 5
Info! Золотая раздача, скачанное не засчитывается.
Торрент: Зарегистрирован [2018-07-26 07:13] · скачан: 175 раз
Статус: √ проверено
Размер: 7.76 GB
Как cкачать? Как скачать Предложение через торрент | qTorrent


>> Регистрируемся здесь <<






Отзывы и комментарии о схеме читаем и пишем здесь: ---> Отзывы и комментарии о схеме

Новые благодарочки в телеграм довольных пользователей:
скриншот   скриншот   скриншот   скриншот   скриншот
    Дорогой пользователь! Огромная просьба, поблагодарите релизера, оцените раздачу и оставьте свои комментарий, если Вы скачали Предложение через торрент бесплатно! Внесите свою лепту в развитие PiratBit!
    Комментировать посты могут только пользователи прошедшие не сложную регистрацию
    Показать сообщения:    

    Предложение через торрент
    Скачать бесплатно Предложение
    Предложение скачать торрент
    Предложение смотреть онлайн
    Cкачать фильм Предложение бесплатно
    Предложение скачать торрент в хорошем качестве
    Предложение смотреть онлайн бесплатно в хорошем качестве


    Вы не можете начинать темы
    Вы не можете отвечать на сообщения
    Вы не можете редактировать свои сообщения
    Вы не можете удалять свои сообщения
    Вы не можете голосовать в опросах
    Вы не можете прикреплять файлы к сообщениям
    Вы можете скачивать файлы