Ссылка на приватное зеркало всего за 1$. Внимание количество ограничено!!!

iTunes

1+1

iTunes

мы

WEB-DL

1

iTunes

Чернобыль

iTunes

Ральф против интернета

Лицензия

ПШазам

Лицензия

Оно 2

Лицензия

30
pack

Вам бонус

ВАЖНО

!!Акция!!

Alien_RageХит недели

RePack

Resident Evil 21

ИГРА 18+

pack

RePack

jed

!!Акция!!

Alien_Rage

RePack

fifa19

RePack

Assassins Creed: Odyssey

RePack

NEED FOR SPEED™ PAYBACK

3 сезон

9 сезон

Бесстыжие 9 сезон

Все сериалы

все сериалы на PB.wtf

RePack

FAR CRY 5
Ребята, катастрофически не хватает 1900р. для оплаты серверов за Октябрь (всвязи с блокировками трафик упал в 3 раза), 1-2р., выручайте.
  

Инсомния / No dormirás (Густаво Эрнандес) [2018, ужасы, триллер, детектив, WEB-DLRip-AVC] DUB [iTunes] pb.wtf

Инсомния через торрент pb.wtf

Раздают: 6 [ 15 KB/s ]
Размер: 1.46 GB | Добавлен: 1 год 4 мес. назад | Торрент скачан:1753 раза
Скачать  

26-07-2018 13:01 Инсомния Скачать торрент  

Инсомния / No dormirás
Год выпуска: 2018
Страна: Испания , Аргентина , Уругвай
Жанр: ужасы, триллер, детектив
Продолжительность: 01:46:22
Перевод: Дублированный | iTunes
Субтитры: отсутствуют

Режиссер: Густаво Эрнандес

rating

В ролях:

Белен Руэда, Эва Кватрокки, Наталия де Молина, Герман Палашиос, Эухения Тобаль, Хуан Мануэль Гилера, Мария Забай, Мигель Анхель Масиэль, Сюзана Орнос, Мария Альфонса Россо

Описание:

В заброшенную психиатрическую клинику приезжает новаторская театральная труппа, чтобы отрепетировать пьесу, написанную пациентами клиники много лет назад. Одно из условий - актеры должны отказаться от сна. Постепенно их восприятие реальности начинает меняться. Они сталкиваются с потусторонними силами, которые подталкивают их к жестокой и трагической развязке, описанной в пьесе.

Качество: WEB-DLRip-AVC
Формат: MKV

Видео: 1024x458 (1.85:1), 24,000 fps, x264 ~1 580 kbps avg, 0.140 bit/pixel
Аудио: 48 kHz, AC3 Dolby Digital, 3/2 (L,C,R,l,r) + LFE ch, ~384.00 kbps avg | RUS (iTunes)
скриншот  скриншот  скриншот  скриншот  скриншот  

Общее
Уникальный идентификатор : 165446589996546609595173110722243062049 (0x7C77DAAC01A90B9EDA5B8F06CC27E921)
Полное имя : F:OlLanDGroupInsomnia.2018.WEB-DLRip(AVC).OlLanDGroup.mkv
Формат : Matroska
Версия формата : Version 4 / Version 2
Размер файла : 1,46 Гбайт
Продолжительность : 1 ч. 46 м.
Общий поток : 1965 Кбит/сек
Название фильма : Insomnia.2018 #TorpedoUK#
Дата кодирования : UTC 2018-07-26 10:32:16
Программа кодирования : mkvmerge v25.0.0 ('Prog Noir') 64-bit
Библиотека кодирования : libebml v1.3.6 + libmatroska v1.4.9

Видео
Идентификатор : 1
Формат : AVC
Формат/Информация : Advanced Video Codec
Профиль формата : High@L4.1
Параметр CABAC формата : Да
Параметр ReFrames формата : 10 кадров
Идентификатор кодека : V_MPEG4/ISO/AVC
Продолжительность : 1 ч. 46 м.
Битрейт : 1580 Кбит/сек
Ширина : 1024 пикселя
Высота : 458 пикселей
Соотношение сторон : 2,25:1
Режим частоты кадров : Постоянный
Частота кадров : 24,000 кадра/сек
Цветовое пространство : YUV
Субдискретизация насыщенности : 4:2:0
Битовая глубина : 8 бит
Тип развёртки : Прогрессивная
Бит/(Пиксели*Кадры) : 0.140
Размер потока : 1,17 Гбайт (80%)
Библиотека кодирования : x264 core 146 r2538 121396c
Настройки программы : cabac=1 / ref=10 / deblock=1:-2:-3 / analyse=0x3:0x113 / me=umh / subme=11 / psy=1 / psy_rd=0.97:0.07 / mixed_ref=1 / me_range=48 / chroma_me=1 / trellis=2 / 8x8dct=1 / cqm=0 / deadzone=21,11 / fast_pskip=1 / chroma_qp_offset=-3 / threads=6 / lookahead_threads=1 / sliced_threads=0 / nr=0 / decimate=1 / interlaced=0 / bluray_compat=0 / constrained_intra=0 / bframes=10 / b_pyramid=2 / b_adapt=2 / b_bias=0 / direct=3 / weightb=1 / open_gop=0 / weightp=2 / keyint=240 / keyint_min=24 / scenecut=40 / intra_refresh=0 / rc_lookahead=40 / rc=2pass / mbtree=1 / bitrate=1580 / ratetol=1.0 / qcomp=0.60 / qpmin=0 / qpmax=69 / qpstep=4 / cplxblur=20.0 / qblur=0.5 / vbv_maxrate=50000 / vbv_bufsize=62500 / nal_hrd=none / filler=0 / ip_ratio=1.40 / aq=1:1.00
Default : Да
Forced : Нет

Аудио
Идентификатор : 2
Формат : AC-3
Формат/Информация : Audio Coding 3
Расширение режима : CM (complete main)
Параметр Endianness формата : Big
Идентификатор кодека : A_AC3
Продолжительность : 1 ч. 46 м.
Вид битрейта : Постоянный
Битрейт : 384 Кбит/сек
Каналы : 6 каналов
Расположение каналов : Front: L C R, Side: L R, LFE
Частота : 48,0 КГц
Частота кадров : 31,250 кадров/сек (1536 spf)
Битовая глубина : 16 бит
Метод сжатия : С потерями
Размер потока : 292 Мбайт (20%)
Заголовок : [DUB] DD 5.1 @ 384 kbps (iTunes)
Язык : Russian
Default : Да
Forced : Нет

Меню
00:00:00.000 : en:Глава 1
00:06:18.958 : en:Глава 2
00:12:00.249 : en:Глава 3
00:18:27.540 : en:Глава 4
00:24:44.873 : en:Глава 5
00:29:41.706 : en:Глава 6
00:37:48.831 : en:Глава 7
00:45:11.414 : en:Глава 8
00:51:59.622 : en:Глава 9
00:58:09.205 : en:Глава 10
01:05:37.205 : en:Глава 11
01:14:03.621 : en:Глава 12
01:20:48.496 : en:Глава 13
01:27:02.037 : en:Глава 14
01:33:51.078 : en:Глава 15

pb.wtf



Скачать Инсомния через торрент https://img11.lostpic.net/2018/07/26/99868d5f2f14d55b3de2b7f21c0132d1.png Скачать фильм Инсомния через торрент бесплантно в хорошем качестве Описание: В заброшенную психиатрическую клинику приезжает новаторская театральная труппа, чтобы отрепетировать пьесу, написанную пациентами ... 9.1 10 27
Info! Золотая раздача, скачанное не засчитывается.
Торрент: Зарегистрирован [2018-07-26 13:01] · скачан: 1 753 раз
Статус: √ проверено
Размер: 1.46 GB
Как cкачать? Как скачать Инсомния через торрент | qTorrent

% Раздел Тема Автор DL S | L
Фильмы 2018 [DVDrip, WEB-DLRip, HDrip] (DUB, MVO) [ 745 MB ] Инсомния / No dormirás [2018 WEB-DLRip] bober100 Скачать
1 | 0
Фильмы (WEB-DL 720p, 1080p) [ 3.65 GB ] Инсомния / No dormirás [2018 WEB-DL 1080p] bober100 Скачать
2 | 0
Фильмы 2018 [DVDrip, WEB-DLRip, HDrip] (DUB, MVO) [ 1.46 GB ] Инсомния / No dormirás [2018 WEB-DLRip] bober100 Скачать
1 | 0

28-11-2019 20:33  

Отключить всю рекламу на сайте

27-07-2018 14:58 Инсомния Скачать торрент  

Классное кино!pb.wtf



27-07-2018 16:06 Инсомния Скачать торрент  

чушьpb.wtf



27-07-2018 18:48 Инсомния Скачать торрент  

снят не идиотами . закручено но понять можно . над фильмом надо думать . на любителя но мне понравилсяpb.wtf



28-07-2018 13:41 Инсомния Скачать торрент  

посмотреть можно разок.. от скукиpb.wtf



29-07-2018 18:22 Инсомния Скачать торрент  

Удалил после 40-ка минут просмотра pb.wtf



    Дорогой пользователь! Огромная просьба, поблагодарите релизера, оцените раздачу и оставьте свои комментарий, если Вы скачали Инсомния через торрент бесплатно! Внесите свою лепту в развитие PiratBit!
    Комментировать посты могут только пользователи прошедшие не сложную регистрацию
    Показать сообщения:    

    Инсомния через торрент
    Скачать бесплатно Инсомния
    Инсомния скачать торрент
    Инсомния смотреть онлайн
    Cкачать фильм Инсомния бесплатно
    Инсомния скачать торрент в хорошем качестве
    Инсомния смотреть онлайн бесплатно в хорошем качестве


    Вы не можете начинать темы
    Вы не можете отвечать на сообщения
    Вы не можете редактировать свои сообщения
    Вы не можете удалять свои сообщения
    Вы не можете голосовать в опросах
    Вы не можете прикреплять файлы к сообщениям
    Вы можете скачивать файлы