Ссылка на приватное зеркало всего за 1$. Внимание количество ограничено!!!

OK

1+1

iTunes

мы

OK

1

WEB-DLRip

Джокер

Пифагор

Ведьмак / The Witcher сериал

iTunes

ПШазам

ОК

Оно 2

iTunes

30
pack

Вам бонус

ВАЖНО

!!Акция!!

Alien_RageХит недели

RePack

Resident Evil 21

ИГРА 18+

pack

RePack

jed

RePack

fifa19

RePack

Assassins Creed: Odyssey

RePack

NEED FOR SPEED™ PAYBACK

4 сезон

9 сезон

Бесстыжие 9 сезон

Все сериалы

все сериалы на PB.wtf

RePack

FAR CRY 5
  

Дорога домой / The Inland Road (Джеки ван Бик) [2017 г., Драма, WEBRip 720p, Любительский (двухголосый)] [HiWay Grope] pb.wtf

Дорога домой через торрент pb.wtf

Размер: 1.76 GB | Добавлен: 1 год 5 мес. назад | Торрент скачан:20 раз
Скачать  

26-07-2018 13:58 Дорога домой Скачать торрент  

Дорога домой / The Inland Road
Год выпуска: 2017
Страна: Новая Зеландия
Жанр: Драма
Продолжительность: 01:16:53
Перевод: Любительский (двухголосый) | HiWay Grope
Субтитры: Отсутствуют

Режиссер: Джеки ван Бик

rating

В ролях: Дэвид Эллиот, Джоди Хиллок, Глория Попата, Челси Престон-Крейфорд, Джорджия Спильян

Описание: Шестнадцатилетняя Тиа сбегает из дома и попадает в аварию с незнакомцами, после которой ей удаётся спасти одному из них жизнь. Не желая возвращаться домой, она решает ненадолго остаться в его доме, но не понимает, что нарушает их, и без того хрупкий, семейный баланс.

Качество: WEBRip 720p
Формат: MKV
Видео кодек: AVC
Аудио кодек: AC3
Видео: AVC, 1280x536 , 25.0fps, 3022 Kbps
Аудио#1: AC3 , 2 ch , 48 kHz , 192 kbps
скриншот   скриншот   скриншот   скриншот  

Общее
Уникальный идентификатор : 47330842246881306755214353076630347992 (0x239B96B0F4BA000351889EF0153C60D8)
Полное имя : D:The.Inland.Road.2017.720p.WEBRip.HiWayGrope.mkv
Формат : Matroska
Версия формата : Version 4 / Version 2
Размер файла : 1,76 Гбайт
Продолжительность : 1 ч. 16 м.
Общий поток : 3280 Кбит/сек
Дата кодирования : UTC 2018-07-26 08:12:07
Программа кодирования : mkvmerge v25.0.0 ('Prog Noir') 64-bit
Библиотека кодирования : libebml v1.3.6 + libmatroska v1.4.9

Видео
Идентификатор : 1
Формат : AVC
Формат/Информация : Advanced Video Codec
Профиль формата : Main@L4.1
Параметр CABAC формата : Да
Параметр ReFrames формата : 4 кадра
Идентификатор кодека : V_MPEG4/ISO/AVC
Продолжительность : 1 ч. 16 м.
Битрейт : 3022 Кбит/сек
Ширина : 1280 пикселей
Высота : 536 пикселей
Соотношение сторон : 2,40:1
Режим частоты кадров : Постоянный
Частота кадров : 25,000 кадров/сек
Стандарт вещания : PAL
Цветовое пространство : YUV
Субдискретизация насыщенности : 4:2:0
Битовая глубина : 8 бит
Тип развёртки : Прогрессивная
Бит/(Пиксели*Кадры) : 0.176
Размер потока : 1,62 Гбайт (92%)
Язык : English
Default : Да
Forced : Нет
Основные цвета : BT.601 NTSC
Характеристики трансфера : BT.601
Коэффициенты матрицы : BT.601

Аудио
Идентификатор : 2
Формат : AC-3
Формат/Информация : Audio Coding 3
Расширение режима : CM (complete main)
Параметр Endianness формата : Big
Идентификатор кодека : A_AC3
Продолжительность : 1 ч. 16 м.
Вид битрейта : Постоянный
Битрейт : 192 Кбит/сек
Каналы : 2 канала
Расположение каналов : Front: L R
Частота : 48,0 КГц
Битовая глубина : 16 бит
Метод сжатия : С потерями
Размер потока : 106 Мбайт (6%)
Язык : Russian
Default : Да
Forced : Нет

pb.wtf



Скачать Дорога домой через торрент http://pic1.kartinco.top/images/11/y1e34.jpg Скачать фильм Дорога домой через торрент бесплантно в хорошем качестве Описание: Шестнадцатилетняя Тиа сбегает из дома и попадает в аварию с незнакомцами, после которой ей удаётся спасти одному из них жизнь. Не ... 8.3 10 3
Торрент: Зарегистрирован [2018-07-26 13:58] · скачан: 20 раз
Статус: T временная
Размер: 1.76 GB
Как cкачать? Как скачать Дорога домой через торрент | qTorrent

28-11-2019 20:33  

Отключить всю рекламу на сайте

    Дорогой пользователь! Огромная просьба, поблагодарите релизера, оцените раздачу и оставьте свои комментарий, если Вы скачали Дорога домой через торрент бесплатно! Внесите свою лепту в развитие PiratBit!
    Комментировать посты могут только пользователи прошедшие не сложную регистрацию
    Показать сообщения:    

    Дорога домой через торрент
    Скачать бесплатно Дорога домой
    Дорога домой скачать торрент
    Дорога домой смотреть онлайн
    Cкачать фильм Дорога домой бесплатно
    Дорога домой скачать торрент в хорошем качестве
    Дорога домой смотреть онлайн бесплатно в хорошем качестве


    Вы не можете начинать темы
    Вы не можете отвечать на сообщения
    Вы не можете редактировать свои сообщения
    Вы не можете удалять свои сообщения
    Вы не можете голосовать в опросах
    Вы не можете прикреплять файлы к сообщениям
    Вы можете скачивать файлы