Ссылка на приватное зеркало всего за 1$. Внимание количество ограничено!!!

OK

1+1

iTunes

мы

OK

1

WEB-DLRip

Джокер

Пифагор

Ведьмак / The Witcher сериал

iTunes

ПШазам

ОК

Оно 2

iTunes

30
pack

Вам бонус

ВАЖНО

!!Акция!!

Alien_RageХит недели

RePack

Resident Evil 21

ИГРА 18+

pack

RePack

jed

RePack

fifa19

RePack

Assassins Creed: Odyssey

RePack

NEED FOR SPEED™ PAYBACK

4 сезон

9 сезон

Бесстыжие 9 сезон

Все сериалы

все сериалы на PB.wtf

RePack

FAR CRY 5
  

Злобный монах / A Monks Madness (Вонг Зи) [2018 г., Боевик, WEBRip, Любительский (многоголосый) (КОЛОБОК)] pb.wtf

Злобный монах через торрент pb.wtf

Размер: 1.32 GB | Добавлен: 1 год 6 мес. назад | Торрент скачан:176 раз
Скачать  

26-07-2018 15:49 Злобный монах Скачать торрент  

Злобный монах / A Monks Madness
Год выпуска: 2018
Страна: Китай
Жанр: Боевик
Продолжительность: 01:25:56
Перевод: Любительский (многоголосый)(КОЛОБОК)
Субтитры: Китайские, английские (хардсаб)

Режиссер: Вонг Зи

rating

В ролях: Джин Сон, Жанг Хенгэ, Ли Янан, Хин Хин, Женьг Кван ...

Описание: Эта история произошла с необыкновенным разбойником. Половину своей жизни он грабил и убивал людей, а потом вдруг решил, что так больше жить нельзя. Исправить свои ошибки бандит решил став монахом. Только злой человек остается таким же, даже если его перенести в другие жизненные условия. В итоге получился очень злой монах, вместо того чтобы помогать людям, он стал сеять лишь хаос вокруг себя ...

Доп. информация: Присутствуют вставки текстовой рекламы

Качество: WEBRip
Формат: AVI
Видео кодек: XviD
Аудио кодек: AC3
Видео: XviD, 720x304, ~1809 Kbps
Аудио#1: AC-3, 2 ch, 384 Kbps
скриншот   скриншот   скриншот   скриншот  

Общее
Полное имя : E:\NNM\Безумный монах\A Monks Madness 2018 WEBRip.avi
Формат : AVI
Формат/Информация : Audio Video Interleave
Профиль формата : OpenDML
Размер файла : 1,32 Гбайт
Продолжительность : 1 ч. 25 м.
Общий поток : 2206 Кбит/сек

Видео
Идентификатор : 0
Формат : MPEG-4 Visual
Профиль формата : Advanced Simple@L5
Настройки формата : BVOP2 / Custom Matrix
Параметр BVOP формата : 2
Параметр QPel формата : Нет
Параметр GMC формата : Без точки перехода
Параметр матрицы формата : Выборочная
Идентификатор кодека : XVID
Идентификатор кодека/Подсказка : XviD
Продолжительность : 1 ч. 25 м.
Битрейт : 1809 Кбит/сек
Ширина : 720 пикселей
Высота : 304 пикселя
Соотношение сторон : 2,35:1
Частота кадров : 23,976 (24000/1001) кадра/сек
Цветовое пространство : YUV
Субдискретизация насыщенности : 4:2:0
Битовая глубина : 8 бит
Тип развёртки : Прогрессивная
Метод сжатия : С потерями
Бит/(Пиксели*Кадры) : 0.345
Размер потока : 1,09 Гбайт (82%)
Библиотека кодирования : XviD 1.2.1 (UTC 2008-12-04)

Аудио
Идентификатор : 1
Формат : AC-3
Формат/Информация : Audio Coding 3
Идентификатор кодека : 2000
Продолжительность : 1 ч. 25 м.
Вид битрейта : Постоянный
Битрейт : 384 Кбит/сек
Каналы : 2 канала
Расположение каналов : Front: L R
Частота : 48,0 КГц
Частота кадров : 31,250 кадров/сек (1536 SPF)
Битовая глубина : 16 бит
Метод сжатия : С потерями
Размер потока : 236 Мбайт (17%)
Выравнивание : Соединение по промежуткам
Продолжительность промежутка : 32 мс. (0,77 видеокадр)
ServiceKind/String : Complete Main

pb.wtf



Скачать Злобный монах через торрент http://pic1.kartinco.top/images/11/o2yrs.jpg Скачать фильм Злобный монах через торрент бесплантно в хорошем качестве Описание: Эта история произошла с необыкновенным разбойником. Половину своей жизни он грабил и убивал людей, а потом вдруг решил, что так ... 9.8 10 4
Info! Золотая раздача, скачанное не засчитывается.
Торрент: Зарегистрирован [2018-07-26 15:49] · скачан: 176 раз
Статус: T временная
Размер: 1.32 GB
Как cкачать? Как скачать Злобный монах через торрент | qTorrent

28-11-2019 20:33  

Отключить всю рекламу на сайте

    Дорогой пользователь! Огромная просьба, поблагодарите релизера, оцените раздачу и оставьте свои комментарий, если Вы скачали Злобный монах через торрент бесплатно! Внесите свою лепту в развитие PiratBit!
    Комментировать посты могут только пользователи прошедшие не сложную регистрацию
    Показать сообщения:    

    Злобный монах через торрент
    Скачать бесплатно Злобный монах
    Злобный монах скачать торрент
    Злобный монах смотреть онлайн
    Cкачать фильм Злобный монах бесплатно
    Злобный монах скачать торрент в хорошем качестве
    Злобный монах смотреть онлайн бесплатно в хорошем качестве


    Вы не можете начинать темы
    Вы не можете отвечать на сообщения
    Вы не можете редактировать свои сообщения
    Вы не можете удалять свои сообщения
    Вы не можете голосовать в опросах
    Вы не можете прикреплять файлы к сообщениям
    Вы можете скачивать файлы