Ссылка на приватное зеркало нашего сайта всего за 1$. Внимание количество ограничено!!!

2 сезон

iTunes

1 сезон

1

2 сезон

2 сезон

iTunes

1 сезон

RePack

30

Ultimate

ВАЖНО

ИГРА 18+

pack

RePack

MK11
pack

Забери бонус

RePack

jed

!!Акция!!

Alien_Rage

RePack

fifa19

RePack

Assassins Creed: Odyssey

RePack

NEED FOR SPEED™ PAYBACK

4 сезон

9 сезон

Бесстыжие 9 сезон

Все сериалы

все сериалы на PB.wtf

RePack

FAR CRY 5
  

Лучше звоните Солу / Better Call Saul / Сезон: 3 / Серии: 1-10 из 10 (Колин Бакси, Адам Бернштейн) [2017, драма, комедия, криминал, WEBRip 1080p] DVO [Кубик в Кубе] pb.wtf

Лучше звоните Солу через торрент pb.wtf

Размер: 31.59 GB | Добавлен: 2 года 4 мес. назад | Торрент скачан:37 раз
Скачать  

26-07-2018 19:26 Лучше звоните Солу Скачать торрент  

Лучше звоните Солу / Better Call Saul Год выпуска: 2017
Страна: США
Жанр: драма, комедия, криминал
Продолжительность: ~40:00 мин
Перевод: Профессиональный (двухголосый закадровый) | Кубик в Кубе
Субтитры: английские

Режиссёр: Колин Бакси, Адам Бернштейн, Винс Гиллиган

В ролях:

Боб Оденкёрк, Ри Сихорн, Патрик Фабиан, Майкл МакКин, Майкл Мэндо, Джонатан Бэнкс, Ген Н. Чавес, Джил Мюррэй

Описание:

История об испытаниях и невзгодах, которые приходится преодолеть Солу Гудману, адвокату по уголовным делам, в тот период, когда он пытается открыть свою собственную адвокатскую контору в Альбукерке, штат Нью-Мексико. Cпин-офф сериала «Во все тяжкие».



Релиз: Casstudio
Работа со звуком:: messafan
Перевод:: Инга Бу

Качество: WEBRip 1080p
Формат: MKV

Видео: AVC/H.264, 1920x1080 (16:9), ~8484 Kbps
Аудио: AC3, 384 kbps, 6 ch, 48 kHz [Rus]
Аудио 2: AC3, 384 kbps, 6 ch, 48 kHz [Eng]
Общее
Уникальный идентификатор : 182975839480158733963106144173289555617 (0x89A7DD65DAB22A9E923666F76B32C6A1)
Полное имя : G:\Better Call Saul - Лучше звоните Солу. Сезон 3. Кубик в Кубе. 1080p\Better.Call.Saul.s03e01.WEBRip.1080p.KvK.mkv
Формат : Matroska
Версия формата : Version 4 / Version 2
Размер файла : 3,44 Гбайт
Продолжительность : 52 м. 9 с.
Общий поток : 9439 Кбит/сек
Название фильма : Better Call Saul s03e01
Дата кодирования : UTC 2017-04-13 09:15:06
Программа кодирования : mkvmerge v6.9.1 ('Blue Panther') 64bit built on Apr 18 2014 18:23:38
Библиотека кодирования : libebml v1.3.0 + libmatroska v1.4.1

Видео
Идентификатор : 1
Формат : AVC
Формат/Информация : Advanced Video Codec
Профиль формата : High@L4.1
Параметр CABAC формата : Да
Параметр ReFrames формата : 4 кадра
Идентификатор кодека : V_MPEG4/ISO/AVC
Продолжительность : 52 м. 9 с.
Битрейт : 8484 Кбит/сек
Ширина : 1920 пикселей
Высота : 1080 пикселей
Соотношение сторон : 16:9
Режим частоты кадров : Постоянный
Частота кадров : 23,976 (24000/1001) кадра/сек
Цветовое пространство : YUV
Субдискретизация насыщенности : 4:2:0
Битовая глубина : 8 бит
Тип развёртки : Прогрессивная
Бит/(Пиксели*Кадры) : 0.171
Размер потока : 3,09 Гбайт (90%)
Библиотека кодирования : x264 core 148 r2638 7599210
Настройки программы : cabac=1 / ref=4 / deblock=1:-3:-3 / analyse=0x3:0x133 / me=umh / subme=10 / psy=1 / psy_rd=1.00:0.00 / mixed_ref=1 / me_range=48 / chroma_me=1 / trellis=2 / 8x8dct=1 / cqm=0 / deadzone=21,11 / fast_pskip=0 / chroma_qp_offset=-2 / threads=24 / lookahead_threads=4 / sliced_threads=0 / nr=0 / decimate=0 / interlaced=0 / bluray_compat=0 / constrained_intra=0 / bframes=9 / b_pyramid=0 / b_adapt=2 / b_bias=0 / direct=3 / weightb=1 / open_gop=0 / weightp=2 / keyint=240 / keyint_min=23 / scenecut=40 / intra_refresh=0 / rc=crf / mbtree=0 / crf=19.0 / qcomp=0.60 / qpmin=0 / qpmax=69 / qpstep=4 / ip_ratio=1.40 / pb_ratio=1.30 / aq=3:0.70
Язык : English
Default : Да
Forced : Нет

Аудио #1
Идентификатор : 2
Формат : AC-3
Формат/Информация : Audio Coding 3
Расширение режима : CM (complete main)
Параметр Endianness формата : Big
Идентификатор кодека : A_AC3
Продолжительность : 52 м. 9 с.
Вид битрейта : Постоянный
Битрейт : 384 Кбит/сек
Каналы : 6 каналов
Расположение каналов : Front: L C R, Side: L R, LFE
Частота : 48,0 КГц
Частота кадров : 31,250 кадров/сек (1536 spf)
Битовая глубина : 16 бит
Метод сжатия : С потерями
Размер потока : 143 Мбайт (4%)
Язык : Russian
Default : Да
Forced : Нет

Аудио #2
Идентификатор : 3
Формат : AC-3
Формат/Информация : Audio Coding 3
Расширение режима : CM (complete main)
Параметр Endianness формата : Big
Идентификатор кодека : A_AC3
Продолжительность : 52 м. 9 с.
Вид битрейта : Постоянный
Битрейт : 384 Кбит/сек
Каналы : 6 каналов
Расположение каналов : Front: L C R, Side: L R, LFE
Частота : 48,0 КГц
Частота кадров : 31,250 кадров/сек (1536 spf)
Битовая глубина : 16 бит
Метод сжатия : С потерями
Размер потока : 143 Мбайт (4%)
Язык : English
Default : Нет
Forced : Нет

Текст
Идентификатор : 4
Формат : UTF-8
Идентификатор кодека : S_TEXT/UTF8
Идентификатор кодека/Информация : UTF-8 Plain Text
Язык : English
Default : Нет
Forced : Нет
скриншот  скриншот  скриншот  
Внимание! Раздача ведётся путём добавления новых серий; при каждом добавлении создаётся новый торрент. Чтобы начать докачку новой серии, пользователям необходимо сделать следующее:
(1) остановить скачивание,
(2) удалить старый торрент у себя из клиента (старые серии удалять не надо),
(3) скачать новый торрент и запустить его у себя в клиенте вместо старого, при этом указать клиенту путь в старую папку куда и должно происходить скачивание новых серий.

Ваш клиент при этом должен произвести хеширование (проверку) старой папки (если не производит сам - помогите ему сделать это), и будет докачивать только те серии которых у вас ещё нет. Старые серии при этом не удаляются, а продолжают раздаваться!

Eсли вы уже удалили старые серии, то предотвратить повторную закачку старых серий можно, отжав галочку в соответствующих местах при запуске нового торрента. По возможности, желательно не удалять старые серии как можно дольше чтобы релизёр не столько продолжал раздавать старые серии, а смог сконцентрироваться на новых.
pb.wtf



Скачать Лучше звоните Солу через торрент http://i84.fastpic.ru/big/2016/1030/0a/0d987b9d5f5efa72f3681f7fae0ea20a.png Скачать фильм Лучше звоните Солу через торрент бесплантно в хорошем качестве Описание: История об испытаниях и невзгодах, которые приходится преодолеть Солу Гудману, адвокату по уголовным делам, в тот период, когда ... 10 10 3
Info! Золотая раздача, скачанное не засчитывается.
Торрент: Зарегистрирован [2018-07-26 19:26] · скачан: 37 раз
Статус: √ проверено
Размер: 31.59 GB
Как cкачать? Как скачать Лучше звоните Солу через торрент | qTorrent

% Раздел Тема Автор DL S | L
# Зарубежные сериалы [ 12.43 GB ] Лучше звоните Солу / Better call Saul / Сезон 1-3 / Серии 1-30 из 30 [2015-2017 BDRip-HEVC 1080p ] DVO aksaleale Скачать
2 | 1
Зарубежные сериалы [ 10.44 GB ] Лучше звоните Солу / Better Call Saul / Сезон: 3 / Серии 1-10 из 10 [2017 WEBRip] [DVO] killermax2013 Скачать
1 | 0
Зарубежные сериалы [ 6.25 GB ] Лучше звоните Солу / Better Call Saul / Сезон: 3 / Серии 1-10 из 10 [2017 WEB-DLRip] [MVO] killermax2013 Скачать
1 | 0
Зарубежные сериалы [ 6.18 GB ] Лучше звоните Солу / Better Call Saul / Сезон: 3 / Серии 1-10 из 10 [2017 WEB-DLRip] [MVO] killermax2013 Скачать
1 | 0
Зарубежные сериалы [ 6.84 GB ] Лучше звоните Солу / Better Call Saul / Сезон: 3 / Серии 1-10 из 10 [2017 WEB-DLRip] MVO [Кравец] GEKADOL Скачать
1 | 1
Зарубежные сериалы [ 16.29 GB ] Лучше звоните Солу / Better Call Saul / Сезон: 3 / Серии 1-10 из 10 [2017 WEB-DL 720p] MVO [Кравец] GEKADOL Скачать
1 | 0
Зарубежные сериалы [ 7.56 GB ] Лучше звоните Солу / Better Call Saul / Сезон: 3 / Серии: 1-10 из 10 [2017 WEB-DLRip] MVO [IdeaFilm] bober100 Скачать
1 | 0

28-11-2019 20:33  

Отключить всю рекламу на сайте

    Дорогой пользователь! Огромная просьба, поблагодарите релизера, оцените раздачу и оставьте свои комментарий, если Вы скачали Лучше звоните Солу через торрент бесплатно! Внесите свою лепту в развитие PiratBit!
    Комментировать посты могут только пользователи прошедшие не сложную регистрацию
    Показать сообщения:    

    Лучше звоните Солу через торрент
    Скачать бесплатно Лучше звоните Солу
    Лучше звоните Солу скачать торрент
    Лучше звоните Солу смотреть онлайн
    Cкачать фильм Лучше звоните Солу бесплатно
    Лучше звоните Солу скачать торрент в хорошем качестве
    Лучше звоните Солу смотреть онлайн бесплатно в хорошем качестве


    Вы не можете начинать темы
    Вы не можете отвечать на сообщения
    Вы не можете редактировать свои сообщения
    Вы не можете удалять свои сообщения
    Вы не можете голосовать в опросах
    Вы не можете прикреплять файлы к сообщениям
    Вы можете скачивать файлы