Ссылка на приватное зеркало всего за 1$. Внимание количество ограничено!!!

iTunes

iTunes

iTunes

1

iTunes

iTunes

iTunes

WEBRip

iTunes

30
pack

$ от Little Big

ВАЖНО

!!Акция!!

Alien_RageХит недели

RePack

Resident Evil 21

ИГРА 18+

pack

RePack

jed

!!Акция!!

Alien_Rage

RePack

fifa19

RePack

Assassins Creed: Odyssey

RePack

NEED FOR SPEED™ PAYBACK

4 сезон

9 сезон

Бесстыжие 9 сезон

Все сериалы

все сериалы на PB.wtf

RePack

FAR CRY 5
  

О богах и воинах / Viking Destiny (Дэвид Хьюз) [2018 г., Фэнтези, боевик, приключения, WEB-DLRip, Любительский (многоголосый)(Синема УС)] pb.wtf

О богах и воинах через торрент pb.wtf

Размер: 1.28 GB | Добавлен: 2 года назад | Торрент скачан:241 раз
Скачать  

27-07-2018 03:41 О богах и воинах Скачать торрент  

О богах и воинах / Viking Destiny
Год выпуска: 2018
Страна: Великобритания
Жанр: Фэнтези, боевик, приключения
Продолжительность: 01:30:29
Перевод: Любительский (многоголосый)(Синема УС)
Субтитры: Отсутствуют

Режиссер: Дэвид Хьюз

rating

В ролях: Теренс Стэмп, Мартин Форд, Пол Фримен, Уилл Меллор, Иэн Битти, Виктория Брум, Лоуренс О’Фуорейн, Мюррэй МакАртур, Тимо Ниеминен, Эндрю Випп

Описание: Принцесса-викинг вынуждена бежать из своего королевства после того, как ее обвиняют в убийстве своего отца. Под предводительством бога Одина она кочует по миру, набираясь мудрости и собирая войско, которое поможет ей вернуть ее трон.

Доп. информация: Присутствуют вставки текстовой рекламы

Качество: WEB-DLRip
Формат: AVI
Видео кодек: XviD
Аудио кодек: AC3
Видео: XviD, 720x304, ~1634 Kbps
Аудио#1: AC-3, 2 ch, 384 Kbps
скриншот   скриншот   скриншот   скриншот  

Общее
Полное имя : E:\NNM\О богах и воинах\Of Gods and Warriors 2018 WEB-DLRip.avi
Формат : AVI
Формат/Информация : Audio Video Interleave
Профиль формата : OpenDML
Размер файла : 1,28 Гбайт
Продолжительность : 1 ч. 30 м.
Общий поток : 2031 Кбит/сек

Видео
Идентификатор : 0
Формат : MPEG-4 Visual
Профиль формата : Advanced Simple@L5
Настройки формата : BVOP2 / Custom Matrix
Параметр BVOP формата : 2
Параметр QPel формата : Нет
Параметр GMC формата : Без точки перехода
Параметр матрицы формата : Выборочная
Идентификатор кодека : XVID
Идентификатор кодека/Подсказка : XviD
Продолжительность : 1 ч. 30 м.
Битрейт : 1634 Кбит/сек
Ширина : 720 пикселей
Высота : 304 пикселя
Соотношение сторон : 2,35:1
Частота кадров : 23,976 (24000/1001) кадра/сек
Цветовое пространство : YUV
Субдискретизация насыщенности : 4:2:0
Битовая глубина : 8 бит
Тип развёртки : Прогрессивная
Метод сжатия : С потерями
Бит/(Пиксели*Кадры) : 0.311
Размер потока : 1,03 Гбайт (80%)
Библиотека кодирования : XviD 1.2.1 (UTC 2008-12-04)

Аудио
Идентификатор : 1
Формат : AC-3
Формат/Информация : Audio Coding 3
Идентификатор кодека : 2000
Продолжительность : 1 ч. 30 м.
Вид битрейта : Постоянный
Битрейт : 384 Кбит/сек
Каналы : 2 канала
Расположение каналов : Front: L R
Частота : 48,0 КГц
Частота кадров : 31,250 кадров/сек (1536 SPF)
Битовая глубина : 16 бит
Метод сжатия : С потерями
Размер потока : 249 Мбайт (19%)
Выравнивание : Соединение по промежуткам
Продолжительность промежутка : 32 мс. (0,77 видеокадр)
ServiceKind/String : Complete Main

pb.wtf



Скачать О богах и воинах через торрент http://pic1.kartinco.top/images/11/ep3k2.jpg Скачать фильм О богах и воинах через торрент бесплантно в хорошем качестве Описание: Принцесса-викинг вынуждена бежать из своего королевства после того, как ее обвиняют в убийстве своего отца. Под предводительством ... 9.8 10 6
Торрент: Зарегистрирован [2018-07-27 03:41] · скачан: 241 раз
Статус: T временная
Размер: 1.28 GB
Как cкачать? Как скачать О богах и воинах через торрент | qTorrent

28-11-2019 20:33  

Отключить всю рекламу на сайте

27-07-2018 04:08 О богах и воинах Скачать торрент  

перекинте в раздел зарубежные фильмы ,чет спросонья затупил,спасибо.pb.wtf



27-07-2018 05:01 О богах и воинах Скачать торрент  

    Дорогой пользователь! Огромная просьба, поблагодарите релизера, оцените раздачу и оставьте свои комментарий, если Вы скачали О богах и воинах через торрент бесплатно! Внесите свою лепту в развитие PiratBit!
    Комментировать посты могут только пользователи прошедшие не сложную регистрацию
    Показать сообщения:    

    О богах и воинах через торрент
    Скачать бесплатно О богах и воинах
    О богах и воинах скачать торрент
    О богах и воинах смотреть онлайн
    Cкачать фильм О богах и воинах бесплатно
    О богах и воинах скачать торрент в хорошем качестве
    О богах и воинах смотреть онлайн бесплатно в хорошем качестве


    Вы не можете начинать темы
    Вы не можете отвечать на сообщения
    Вы не можете редактировать свои сообщения
    Вы не можете удалять свои сообщения
    Вы не можете голосовать в опросах
    Вы не можете прикреплять файлы к сообщениям
    Вы можете скачивать файлы