Ссылка на приватное зеркало всего за 1$. Внимание количество ограничено!!!

OK

1+1

iTunes

мы

OK

1

WEB-DLRip

Джокер

Пифагор

Ведьмак / The Witcher сериал

iTunes

ПШазам

ОК

Оно 2

iTunes

30
pack

Вам бонус

ВАЖНО

!!Акция!!

Alien_RageХит недели

RePack

Resident Evil 21

ИГРА 18+

pack

RePack

jed

RePack

fifa19

RePack

Assassins Creed: Odyssey

RePack

NEED FOR SPEED™ PAYBACK

4 сезон

9 сезон

Бесстыжие 9 сезон

Все сериалы

все сериалы на PB.wtf

RePack

FAR CRY 5
  

Ангелы против зомби / Dark Patch (Эммануэль Саез) [2018 г., Фэнтези, ужасы, боевик, WEB-DLRip, Любительский (многоголосый)] [КОЛОБОК] pb.wtf

Ангелы против зомби через торрент pb.wtf

Размер: 1.37 GB | Добавлен: 1 год 6 мес. назад | Торрент скачан:197 раз
Скачать  

27-07-2018 16:25 Ангелы против зомби Скачать торрент  

Ангелы против зомби / Dark Patch
Год выпуска: 2018
Страна: США
Жанр: Фэнтези, ужасы, боевик
Продолжительность: 01:42:57
Перевод: Любительский (многоголосый) | КОЛОБОК
Субтитры: Отсутствуют

Режиссер: Эммануэль Саез

rating

В ролях: Sonia Pérez, Jean Christophe Aubert, Vincent Andres, Philippe Coste, Elissa Houles, Cyrille Rodriguez, Laurent Cerulli, Brice Lemaire, Мануэль Гонсалвес, Florent Hugon

Описание: Фантастическая история о том, как на Рим и Ватикан, налетел метеоритный дождь, который породил полчища зомби из армии сатаны. Начался штурм земных чертогов, но на их пути встали семь бессмертных архангелов, чье задание вернуть непрошеных гостей обратно в ад, тем самым защитить человечество.

Качество: WEB-DLRip
Формат: AVI
Видео кодек: XviD
Аудио кодек: AC3
Видео: XviD, 720x304 , 23.9fps, 1507 Kbps
Аудио#1: AC3 , 2 ch , 48 kHz , 384 kbps
скриншот   скриншот   скриншот   скриншот  

Общее
Полное имя : D:AvZ Angels vs Zombies aka Dark Patch.2018.Pk.WEBDLRip.14OOMB.avi
Формат : AVI
Формат/Информация : Audio Video Interleave
Размер файла : 1,37 Гбайт
Продолжительность : 1 ч. 42 м.
Общий поток : 1900 Кбит/сек
Программа кодирования : VirtualDubMod 1.5.10.2 (build 2540/release)
Библиотека кодирования : VirtualDubMod build 2540/release

Видео
Идентификатор : 0
Формат : MPEG-4 Visual
Профиль формата : Advanced Simple@L5
Параметр BVOP формата : 2
Параметр QPel формата : Нет
Параметр GMC формата : Без точки перехода
Параметр матрицы формата : Выборочная
Идентификатор кодека : XVID
Идентификатор кодека/Подсказка : XviD
Продолжительность : 1 ч. 42 м.
Битрейт : 1507 Кбит/сек
Ширина : 720 пикселей
Высота : 304 пикселя
Соотношение сторон : 2,35:1
Частота кадров : 23,976 кадра/сек
Цветовое пространство : YUV
Субдискретизация насыщенности : 4:2:0
Битовая глубина : 8 бит
Тип развёртки : Прогрессивная
Метод сжатия : С потерями
Бит/(Пиксели*Кадры) : 0.287
Размер потока : 1,08 Гбайт (79%)
Библиотека кодирования : XviD 1.2.1 (UTC 2008-12-04)

Аудио
Идентификатор : 1
Формат : AC-3
Формат/Информация : Audio Coding 3
Расширение режима : CM (complete main)
Параметр Endianness формата : Big
Идентификатор кодека : 2000
Продолжительность : 1 ч. 42 м.
Вид битрейта : Постоянный
Битрейт : 384 Кбит/сек
Каналы : 2 канала
Расположение каналов : Front: L R
Частота : 48,0 КГц
Битовая глубина : 16 бит
Метод сжатия : С потерями
Размер потока : 283 Мбайт (20%)
Выравнивание : Разделение по промежуткам
Продолжительность промежутка : 42 мс. (1,00 видеокадр)
Время предзагрузки промежутка : 500 мс.

pb.wtf



Скачать Ангелы против зомби через торрент http://pic1.kartinco.top/images/11/6xhvo.jpg Скачать фильм Ангелы против зомби через торрент бесплантно в хорошем качестве Описание: Фантастическая история о том, как на Рим и Ватикан, налетел метеоритный дождь, который породил полчища зомби из армии сатаны. ... 7 10 9
Торрент: Зарегистрирован [2018-07-27 16:25] · скачан: 197 раз
Статус: T временная
Размер: 1.37 GB
Как cкачать? Как скачать Ангелы против зомби через торрент | qTorrent

28-11-2019 20:33  

Отключить всю рекламу на сайте

27-07-2018 16:35 Ангелы против зомби Скачать торрент  

pb.wtf



27-07-2018 16:37 Ангелы против зомби Скачать торрент  

pb.wtf



27-07-2018 17:09 Ангелы против зомби Скачать торрент  

тв3?pb.wtf



28-07-2018 09:14 Ангелы против зомби Скачать торрент  

Терминатор против нинзя черепашек . Русскии аналог дедпула- ДедВдул . Русскии ЧеловекПук . Вот что надо снимать ,а то зомби да зомби .pb.wtf



28-07-2018 09:21 Ангелы против зомби Скачать торрент  

Меня жизнь к такому не готовила ... А где ангелы то на скринах ? или ангелы это полицейские с пистолетами ?pb.wtf



28-07-2018 15:57 Ангелы против зомби Скачать торрент  

Фильм с изюминкой, но если докопаться, то и с парадоксом.
Смысл в том, что конец света неизбежно наступает (человечеству по Божьему замыслу отведено не более 7000 лет, из которых 6000 уже минуло). В этот раз люди становятся после смерти либо зомби, либо не зомби. И тайный орден из 7-ми рыцарей готов перехерачить всех, но не тут то было, среди них есть двойной или даже тройной агент, который убивает своих братьев, дабы они воскресли.
Малобюджетый фильм, но есть неизбитые темы. Фильм можно посмотреть два раза.pb.wtf



29-07-2018 11:05 Ангелы против зомби Скачать торрент  

Киношедевр с рейтингом pb.wtf



29-07-2018 12:37 Ангелы против зомби Скачать торрент  

Тайлер писал(а):

Фильм с изюминкой, но если докопаться, то и с парадоксом.
Смысл в том, что конец света неизбежно наступает (человечеству по Божьему замыслу отведено не более 7000 лет, из которых 6000 уже минуло)

А ниче что первые человек появился 2+кк лет?pb.wtf



    Дорогой пользователь! Огромная просьба, поблагодарите релизера, оцените раздачу и оставьте свои комментарий, если Вы скачали Ангелы против зомби через торрент бесплатно! Внесите свою лепту в развитие PiratBit!
    Комментировать посты могут только пользователи прошедшие не сложную регистрацию
    Показать сообщения:    

    Ангелы против зомби через торрент
    Скачать бесплатно Ангелы против зомби
    Ангелы против зомби скачать торрент
    Ангелы против зомби смотреть онлайн
    Cкачать фильм Ангелы против зомби бесплатно
    Ангелы против зомби скачать торрент в хорошем качестве
    Ангелы против зомби смотреть онлайн бесплатно в хорошем качестве


    Вы не можете начинать темы
    Вы не можете отвечать на сообщения
    Вы не можете редактировать свои сообщения
    Вы не можете удалять свои сообщения
    Вы не можете голосовать в опросах
    Вы не можете прикреплять файлы к сообщениям
    Вы можете скачивать файлы