Всегда рабочее зеркало без VPN и Proxy просто перед .vidak.icu напиши любое слово или цифру, Пример http://9id7.vidak.icu

MVO

Лицензия

1 сезон

1

1 сезон

iTunes

1 сезон

13

1 сезон

Deluxe

pack

Рекомендуем

Пиратка

30

ВАЖНО

RePack

MK11

RePack

jed

RePack

fifa19

RePack

RDR2

RePack

NEED FOR SPEED™ PAYBACK

Кинопоиск HD

6 сезон

 Острые козырьки 6 сезон

Все сериалы

все сериалы на PB.wtf

RePack

FAR CRY 5
  
Magnet ссылка

Закат цивилизации / Extinction (Бен Янг) [2018, фантастика, триллер, WEBRip от R.G. Resident] [Sub Rus] pb.wtf

Закат цивилизации через торрент pb.wtf

Размер: 1.46 GB | Добавлен: 3 года 11 мес. назад | Торрент скачан:540 раз
Смотреть онлайн Закат цивилизации | Скачать    Ребята, помогите собрать деньги на оплату серверов!!!

27-07-2018 18:29 Закат цивилизации Скачать торрент  

Закат цивилизации / Extinction

Год выпуска: 2018
Страна: США
Жанр: фантастика, триллер
Продолжительность: 01:35:20
Перевод: Субтитры
Субтитры: Русские (полные, вшитые)
Режиссер: Бен Янг
В ролях:

Майкл Пенья (Peter), Майк Колтер (David), Лиззи Каплан (Alice), Израэль Бруссар (Miles), Эмма Бут (Samantha), Том Райли (Chris), Лилли Аспелл (Megan), Лекс Шрэпнел (Ray), Эрика Тремблэй (Lucy), Амелия Крауч (Hanna), Сандра Телес (Doctor), Дэн Кейд (Hoyt)
Описание:
Питер видит один и тот же кошмарный сон, в котором он постоянно теряет семью. Однажды сон почти сбывается, когда на Землю прибывают инопланетяне, сеющие смерть, разрушение и ужас. Пытаясь спасти семью, Питер обнаруживает в себе неожиданный источник сил.
Рейтинг:
rating
Качество: WEBRip
Формат: AVI
Видео: XviD, 720x304 (2.37:1), 1733 kbps, 23,976 fps, 0,330 bpp
Аудио: Английский / AC3 / 5.1 / 48 kHz / 448 kbps - Оригинал

General
Complete name : F:\Extinction.2018.NF.Sub.WEBRip.R.G.Resident.avi
Format : AVI
Format/Info : Audio Video Interleave
File size : 1.46 GiB
Duration : 1 h 35 min
Overall bit rate : 2 191 kb/s
Writing application : VirtualDubModRus 1.5.10.2 (build 2542/release)
Writing library : VirtualDubMod build 2542/release

Video
ID : 0
Format : MPEG-4 Visual
Format profile : Advanced Simple@L5
Format settings, BVOP : 1
Format settings, QPel : No
Format settings, GMC : No warppoints
Format settings, Matrix : Custom
Codec ID : XVID
Codec ID/Hint : XviD
Duration : 1 h 35 min
Bit rate : 1 733 kb/s
Width : 720 pixels
Height : 304 pixels
Display aspect ratio : 2.35:1
Frame rate : 23.976 (24000/1001) FPS
Color space : YUV
Chroma subsampling : 4:2:0
Bit depth : 8 bits
Scan type : Progressive
Compression mode : Lossy
Bits/(Pixel*Frame) : 0.330
Stream size : 1.15 GiB (79%)
Writing library : XviD 73

Audio
ID : 1
Format : AC-3
Format/Info : Audio Coding 3
Mode extension : CM (complete main)
Format settings, Endianness : Big
Codec ID : 2000
Duration : 1 h 35 min
Bit rate mode : Constant
Bit rate : 448 kb/s
Channel(s) : 6 channels
Channel positions : Front: L C R, Side: L R, LFE
Sampling rate : 48.0 kHz
Frame rate : 31.250 FPS (1536 spf)
Compression mode : Lossy
Stream size : 305 MiB (20%)
Alignment : Split accross interleaves
Interleave, duration : 42 ms (1.00 video frame)
Interleave, preload duration : 500 ms
pb.wtf



Скачать Закат цивилизации через торрент http://i77.fastpic.ru/big/2016/0417/a7/808a646271c761f7c7d87df3d366b3a7.png Скачать, смотреть онлайн Закат цивилизации бесплантно в хорошем качестве Описание: Питер видит один и тот же кошмарный сон, в котором он постоянно теряет семью. Однажды сон почти сбывается, когда на Землю ... 9.3 10 12
Info! Золотая раздача, скачанное не засчитывается.
Торрент: Зарегистрирован [2018-07-27 18:29] · скачан: 540 раз
Статус: √ проверено
Размер: 1.46 GB
Как cкачать? Как скачать Закат цивилизации через торрент | UTorrent

% Раздел Тема Автор DL S | L
T Фильмы 2018 [DVDrip, WEB-DLRip, HDrip] (DUB, MVO) [ 1.76 GB ] Закат цивилизации / Extinction [2018 WEB-DLRip-AVC] 2xMVO [MuzOboz HDRezka Studio] bober100 Скачать
1 | 0
T Ultra HD (UHD: 2K, 4K, 8K) — видео сверхвысокой чёткости [ 13.88 GB ] Закат цивилизации / Extinction [2018 UHD WEBRip 2160p] 2xMVO sheker187 Скачать
1 | 0
T Фильмы (WEB-DL 720p, 1080p) [ 8.35 GB ] Закат цивилизации / Extinction [2018 WEB-DL 1080p] MVO [MuzOboz] bober100 Скачать
1 | 0
T Фильмы 2018 [DVDrip, WEB-DLRip, HDrip] (DUB, MVO) [ 1.59 GB ] Закат цивилизации / Extinction [2018 WEB-DLRip] 2xMVO [MuzOboz HDRezka Studio] bober100 Скачать
1 | 0
Фильмы без перевода [ 4.26 GB ] Закат цивилизации / Extinction [2018 WEBRip 1080p] [Sub Rus] -Lexx- Скачать
1 | 0

28-11-2019 20:33  

Отключить всю рекламу на сайте

    Дорогой пользователь! Огромная просьба, поблагодарите релизера, оцените раздачу и оставьте свои комментарий, если Вы скачали Закат цивилизации через торрент бесплатно!
    Комментировать посты могут только пользователи прошедшие не сложную регистрацию
    Показать сообщения:    

    Закат цивилизации через торрент
    Скачать бесплатно Закат цивилизации
    Закат цивилизации скачать торрент
    Закат цивилизации смотреть онлайн
    Cкачать фильм Закат цивилизации бесплатно
    Закат цивилизации скачать торрент в хорошем качестве
    Закат цивилизации смотреть онлайн бесплатно в хорошем качестве


    Вы не можете начинать темы
    Вы не можете отвечать на сообщения
    Вы не можете редактировать свои сообщения
    Вы не можете удалять свои сообщения
    Вы не можете голосовать в опросах
    Вы не можете прикреплять файлы к сообщениям
    Вы можете скачивать файлы