Ссылка на приватное зеркало всего за 1$. Внимание количество ограничено!!!

iTunes

1+1

iTunes

мы

WEB-DL

1

iTunes

Чернобыль

iTunes

Ральф против интернета

Лицензия

ПШазам

Лицензия

Оно 2

Лицензия

30
pack

Вам бонус

ВАЖНО

!!Акция!!

Alien_RageХит недели

RePack

Resident Evil 21

ИГРА 18+

pack

RePack

jed

!!Акция!!

Alien_Rage

RePack

fifa19

RePack

Assassins Creed: Odyssey

RePack

NEED FOR SPEED™ PAYBACK

3 сезон

9 сезон

Бесстыжие 9 сезон

Все сериалы

все сериалы на PB.wtf

RePack

FAR CRY 5
Ребята, катастрофически не хватает 1900р. для оплаты серверов за Октябрь (всвязи с блокировками трафик упал в 3 раза), 1-2р., выручайте.
  

Тихое место / A Quiet Place (Джон Красински) [2018, ужасы, триллер, драма, BDRip-AVC] MVO [HDrezka Studio] +DUB [Лицензия] pb.wtf

Тихое место через торрент pb.wtf

Размер: 1.68 GB | Добавлен: 1 год 4 мес. назад | Торрент скачан:198 раз
Скачать  

28-07-2018 03:12 Тихое место Скачать торрент  

Тихое место / A Quiet Place
Год выпуска: 2018
Страна: США
Жанр: ужасы, триллер, драма
Продолжительность: 01:30:15
Перевод:

#1. Дублированный | Лицензия
#2. Профессиональный (многоголосый) | HDRezka studio

Субтитры: Русские (форс., полные), Английские (полные, SDH)

Режиссер: Джон Красински

rating

В ролях:

Эмили Блант, Джон Красински, Ноа Джуп, Милли Симмондс, Леон Рассом, Кейд Вудворд, Дорис МакКарти

Описание:

История одной семьи, которая проживает в небольшой уединённой ферме в далёкой американской глубинке. У главных героев есть двое детей. Казалось бы, жизнь этих людей совершенно не отличается от жизни других таких семей. Но главные герои живут в доме, который наполнен ужасными монстрами, реагирующими на любой звук. Герои разучили целый комплекс специальных жестов, которые помогают им общаться друг с другом, не издавая ни единого звука. Кроме того, каждый из членов семьи должен очень тихо передвигаться по всей территории дома, чтобы опасные существа не заметили их. Однако дом, где живут маленькие дети, не может быть самым тихим местом на земле.

Качество: BDRip-AVC
Формат: MKV

Видео: 1024x426 (2.40:1), 23,976 fps, x264 ~1 388 kbps avg, 0.133 bit/pixel
Аудио#1: 48 kHz, AC3 Dolby Digital, 3/2 (L,C,R,l,r) + LFE ch, ~448.00 kbps avg | RUS (Лицензия)
Аудио#2: 48 kHz, AC3 Dolby Digital, 3/2 (L,C,R,l,r) + LFE ch, ~384.00 kbps avg | RUS (HDRezka)
Аудио#3: 48 kHz, AC3 Dolby Digital, 3/2 (L,C,R,l,r) + LFE ch, ~448.00 kbps avg | ENG
скриншот  скриншот  скриншот  скриншот  скриншот  

Общее
Уникальный идентификатор : 163302406974069524586849169573529349416 (0x7ADAE6497202A5DD4DB0E5BFCFB16D28)
Полное имя : F:\OlLanDGroup\A.Quiet.Place.2018.BDRip(AVC).OlLanDGroup.mkv
Формат : Matroska
Версия формата : Version 4 / Version 2
Размер файла : 1,68 Гбайт
Продолжительность : 1 ч. 30 м.
Общий поток : 2670 Кбит/сек
Название фильма : A.Quiet.Place.2018 #TorpedoUK#
Дата кодирования : UTC 2018-07-28 02:59:24
Программа кодирования : mkvmerge v25.0.0 ('Prog Noir') 64-bit
Библиотека кодирования : libebml v1.3.6 + libmatroska v1.4.9

Видео
Идентификатор : 1
Формат : AVC
Формат/Информация : Advanced Video Codec
Профиль формата : High@L4.1
Параметр CABAC формата : Да
Параметр ReFrames формата : 10 кадров
Идентификатор кодека : V_MPEG4/ISO/AVC
Продолжительность : 1 ч. 30 м.
Битрейт : 1388 Кбит/сек
Ширина : 1024 пикселя
Высота : 426 пикселей
Соотношение сторон : 2,40:1
Режим частоты кадров : Постоянный
Частота кадров : 23,976 (24000/1001) кадра/сек
Цветовое пространство : YUV
Субдискретизация насыщенности : 4:2:0
Битовая глубина : 8 бит
Тип развёртки : Прогрессивная
Бит/(Пиксели*Кадры) : 0.133
Размер потока : 896 Мбайт (52%)
Библиотека кодирования : x264 core 146 r2538 121396c
Настройки программы : cabac=1 / ref=10 / deblock=1:-3:-3 / analyse=0x3:0x113 / me=umh / subme=11 / psy=1 / psy_rd=0.99:0.05 / mixed_ref=1 / me_range=48 / chroma_me=1 / trellis=2 / 8x8dct=1 / cqm=0 / deadzone=21,11 / fast_pskip=1 / chroma_qp_offset=-3 / threads=6 / lookahead_threads=1 / sliced_threads=0 / nr=0 / decimate=1 / interlaced=0 / bluray_compat=0 / constrained_intra=0 / bframes=10 / b_pyramid=2 / b_adapt=2 / b_bias=0 / direct=3 / weightb=1 / open_gop=0 / weightp=2 / keyint=240 / keyint_min=23 / scenecut=40 / intra_refresh=0 / rc_lookahead=40 / rc=2pass / mbtree=1 / bitrate=1388 / ratetol=1.0 / qcomp=0.60 / qpmin=0 / qpmax=69 / qpstep=4 / cplxblur=20.0 / qblur=0.5 / vbv_maxrate=50000 / vbv_bufsize=62500 / nal_hrd=none / filler=0 / ip_ratio=1.40 / aq=1:1.00
Язык : English
Default : Да
Forced : Нет

Аудио #1
Идентификатор : 2
Формат : AC-3
Формат/Информация : Audio Coding 3
Расширение режима : CM (complete main)
Параметр Endianness формата : Big
Идентификатор кодека : A_AC3
Продолжительность : 1 ч. 30 м.
Вид битрейта : Постоянный
Битрейт : 448 Кбит/сек
Каналы : 6 каналов
Расположение каналов : Front: L C R, Side: L R, LFE
Частота : 48,0 КГц
Частота кадров : 31,250 кадров/сек (1536 spf)
Битовая глубина : 16 бит
Метод сжатия : С потерями
Размер потока : 289 Мбайт (17%)
Заголовок : License
Язык : Russian
Default : Да
Forced : Нет

Аудио #2
Идентификатор : 3
Формат : AC-3
Формат/Информация : Audio Coding 3
Расширение режима : CM (complete main)
Параметр Endianness формата : Big
Идентификатор кодека : A_AC3
Продолжительность : 1 ч. 30 м.
Вид битрейта : Постоянный
Битрейт : 384 Кбит/сек
Каналы : 6 каналов
Расположение каналов : Front: L C R, Side: L R, LFE
Частота : 48,0 КГц
Частота кадров : 31,250 кадров/сек (1536 spf)
Битовая глубина : 16 бит
Метод сжатия : С потерями
Размер потока : 248 Мбайт (14%)
Заголовок : [HDRezka Studio]
Язык : Russian
Default : Нет
Forced : Нет

Аудио #3
Идентификатор : 4
Формат : AC-3
Формат/Информация : Audio Coding 3
Расширение режима : CM (complete main)
Параметр Endianness формата : Big
Идентификатор кодека : A_AC3
Продолжительность : 1 ч. 30 м.
Вид битрейта : Постоянный
Битрейт : 448 Кбит/сек
Каналы : 6 каналов
Расположение каналов : Front: L C R, Side: L R, LFE
Частота : 48,0 КГц
Частота кадров : 31,250 кадров/сек (1536 spf)
Битовая глубина : 16 бит
Метод сжатия : С потерями
Размер потока : 289 Мбайт (17%)
Заголовок : Original
Язык : English
Default : Нет
Forced : Нет

Текст #1
Идентификатор : 5
Формат : UTF-8
Идентификатор кодека : S_TEXT/UTF8
Идентификатор кодека/Информация : UTF-8 Plain Text
Продолжительность : 1 ч. 19 м.
Битрейт : 6 бит/сек
Count of elements : 94
Размер потока : 3,68 Кбайт (0%)
Заголовок : Forced
Язык : Russian
Default : Да
Forced : Нет

Текст #2
Идентификатор : 6
Формат : UTF-8
Идентификатор кодека : S_TEXT/UTF8
Идентификатор кодека/Информация : UTF-8 Plain Text
Продолжительность : 1 ч. 19 м.
Битрейт : 9 бит/сек
Count of elements : 138
Размер потока : 5,41 Кбайт (0%)
Заголовок : Full
Язык : Russian
Default : Нет
Forced : Нет

Текст #3
Идентификатор : 7
Формат : UTF-8
Идентификатор кодека : S_TEXT/UTF8
Идентификатор кодека/Информация : UTF-8 Plain Text
Продолжительность : 1 ч. 11 м.
Битрейт : 5 бит/сек
Count of elements : 168
Размер потока : 2,94 Кбайт (0%)
Заголовок : Full
Язык : English
Default : Нет
Forced : Нет

Текст #4
Идентификатор : 8
Формат : UTF-8
Идентификатор кодека : S_TEXT/UTF8
Идентификатор кодека/Информация : UTF-8 Plain Text
Продолжительность : 1 ч. 22 м.
Битрейт : 9 бит/сек
Count of elements : 340
Размер потока : 5,61 Кбайт (0%)
Заголовок : SDH
Язык : English
Default : Нет
Forced : Нет

Меню
00:00:00.000 : en:Chapter 1
00:10:19.160 : en:Chapter 2
00:14:38.043 : en:Chapter 3
00:21:52.936 : en:Chapter 4
00:25:09.716 : en:Chapter 5
00:31:05.196 : en:Chapter 6
00:36:23.431 : en:Chapter 7
00:43:47.333 : en:Chapter 8
00:47:42.734 : en:Chapter 9
00:53:48.225 : en:Chapter 10
01:00:31.461 : en:Chapter 11
01:05:55.409 : en:Chapter 12
01:10:57.878 : en:Chapter 13
01:15:29.149 : en:Chapter 14
01:23:47.313 : en:Chapter 15

pb.wtf



Скачать Тихое место через торрент http://i4.imageban.ru/out/2018/05/31/731528b0fabdfcedf6320aa6c4493f3b.png Скачать фильм Тихое место через торрент бесплантно в хорошем качестве Описание: История одной семьи, которая проживает в небольшой уединённой ферме в далёкой американской глубинке. У главных героев есть двое ... 8.9 10 8
Торрент: Зарегистрирован [2018-07-28 03:12] · скачан: 198 раз
Статус: √ проверено
Размер: 1.68 GB
Как cкачать? Как скачать Тихое место через торрент | qTorrent

% Раздел Тема Автор DL S | L
Ultra HD (UHD: 2K, 4K, 8K) — видео сверхвысокой чёткости [ 47 GB ] Тихое место / A Quiet Place [2018 UHD BDRemux 2160p] DUB [Dolby Vision TV] [] sheker187 Скачать
2 | 0
Фильмы с авторской озвучкой [ 1.46 GB ] Тихое место / A Quiet Place [2018 BDRip] [AVO] killermax2013 Скачать
1 | 0
Фильмы [HD 720p, 1080p] (Хороший звук DUB, MVO) [ 5.14 GB ] Тихое место / A Quiet Place [2018 BDRip 1080p HEVC ()] Мичман37 Скачать
2 | 0
Фильмы 2018 [DVDrip, WEB-DLRip, HDrip] (DUB, MVO) [ 1.45 GB ] Тихое место / A Quiet Place [2018 BDRip-AVC] DUB [] - ExKinoRay Enigma2010 Скачать
3 | 0
Ultra HD (UHD: 2K, 4K, 8K) — видео сверхвысокой чёткости [ 16.71 GB ] Тихое место / A Quiet Place [2018 UHD BDRip 2160p] DUB + MVO [HDRezka Studio] sheker187 Скачать
1 | 0
Ultra HD (UHD: 2K, 4K, 8K) — видео сверхвысокой чёткости [ 53.02 GB ] Тихое место / A Quiet Place [2018 UHD BDRemux 2160p] [HDR: Dolby Vision + HDR10] DUB [] bober100 Скачать
1 | 0
Фильмы 2018 [DVDrip, WEB-DLRip, HDrip] (DUB, MVO) [ 747 MB ] Тихое место / A Quiet Place [2018 BDRip] DUB [ BD EUR] bober100 Скачать
2 | 0

28-11-2019 20:33  

Отключить всю рекламу на сайте

    Дорогой пользователь! Огромная просьба, поблагодарите релизера, оцените раздачу и оставьте свои комментарий, если Вы скачали Тихое место через торрент бесплатно! Внесите свою лепту в развитие PiratBit!
    Комментировать посты могут только пользователи прошедшие не сложную регистрацию
    Показать сообщения:    

    Тихое место через торрент
    Скачать бесплатно Тихое место
    Тихое место скачать торрент
    Тихое место смотреть онлайн
    Cкачать фильм Тихое место бесплатно
    Тихое место скачать торрент в хорошем качестве
    Тихое место смотреть онлайн бесплатно в хорошем качестве


    Вы не можете начинать темы
    Вы не можете отвечать на сообщения
    Вы не можете редактировать свои сообщения
    Вы не можете удалять свои сообщения
    Вы не можете голосовать в опросах
    Вы не можете прикреплять файлы к сообщениям
    Вы можете скачивать файлы