Ссылка на приватное зеркало нашего сайта всего за 1$. Внимание количество ограничено!!!

2 сезон

iTunes

1 сезон

1

2 сезон

2 сезон

iTunes

1 сезон

RePack

30

Ultimate

ВАЖНО

ИГРА 18+

pack

RePack

MK11
pack

Забери бонус

RePack

jed

!!Акция!!

Alien_Rage

RePack

fifa19

RePack

Assassins Creed: Odyssey

RePack

NEED FOR SPEED™ PAYBACK

4 сезон

9 сезон

Бесстыжие 9 сезон

Все сериалы

все сериалы на PB.wtf

RePack

FAR CRY 5
  

Третье убийство / Sandome no satsujin (Хирокадзу Корээда) [2017, драма, детектив, криминал, BD Remux 1080p] MVO [iTunes] pb.wtf

Третье убийство через торрент pb.wtf

Размер: 29.35 GB | Добавлен: 2 года 4 мес. назад | Торрент скачан:14 раз
Скачать  

28-07-2018 04:04 Третье убийство Скачать торрент  

Третье убийство / Sandome no satsujin
Год выпуска: 2017
Страна: Япония
Жанр: драма, детектив, криминал
Продолжительность: 02:04:35
Перевод: Профессиональный многоголосый | iTunes
Субтитры: Русские, английские

Режиссер: Хирокадзу Корээда

rating

В ролях:

Масахару Фукуяма, Кодзи Якусё, Синносукэ Мицусима, Микако Итикава, Идзуми Мацуока, Исао Хасидзумэ, Судзу Хиросэ, Хадзимэ Иноэ, Адзю Макита, Итиро Огура

Описание:

Совершено дерзкое убийство. Злодей схвачен и предстает перед судом. 30 лет назад этот человек по имени Мисуми уже совершал аналогичное преступление, и теперь ему грозит смертная казнь. Защищать обвиняемого берутся адвокаты во главе с молодым юристом Сигэмори. Несмотря на то, что его клиент признал свою вину, Сигэмори пытается найти смягчающие обстоятельства. Чем глубже он проникает в суть дела, тем более противоречивым оно становится. Показания жены и дочери убитого полны недомолвок, тогда как общение с подзащитным заставляет Сигэмори испытывать к нему странную, почти мистическую симпатию. Постепенно он все больше проникается мыслью, что Мисуми никакой не убийца.

Качество: BD Remux 1080p
Формат: MKV

Видео: MPEG-4 AVC, 30.0 Mбит/с, 1920x1080, 23.976 кадр/с
Аудио#1: Русский (AC3, 6 ch, 384 Кбит/с) / Профессиональный многоголосый [iTunes]
Аудио#2: Японский (DTS-HD MA, 6 ch, 3421 Кбит/с)
скриншот  скриншот  скриншот  скриншот  скриншот  

General
Unique ID : 269506185425709943919756356328501022066 (0xCAC100D65C849C6CD21C8FF810480D72)
Complete name : C:UsersPublicVideosSample VideosFilmyThe.Third.Murder.2017.BDRemux.1080p.MediaClub.mkv
Format : Matroska
Format version : Version 4 / Version 2
File size : 29.3 GiB
Duration : 2 h 4 min
Overall bit rate mode : Variable
Overall bit rate : 33.7 Mb/s
Encoded date : UTC 2018-07-27 20:41:27
Writing application : mkvmerge v25.0.0 ('Prog Noir') 64-bit
Writing library : libebml v1.3.6 + libmatroska v1.4.9
Cover : Yes
Attachments : cover.jpg

Video
ID : 1
Format : AVC
Format/Info : Advanced Video Codec
Format profile : High@L4.1
Format settings : CABAC / 3 Ref Frames
Format settings, CABAC : Yes
Format settings, RefFrames : 3 frames
Codec ID : V_MPEG4/ISO/AVC
Duration : 2 h 4 min
Bit rate mode : Variable
Bit rate : 30.0 Mb/s
Maximum bit rate : 38.0 Mb/s
Width : 1 920 pixels
Height : 1 080 pixels
Display aspect ratio : 16:9
Frame rate mode : Constant
Frame rate : 23.976 (24000/1001) FPS
Color space : YUV
Chroma subsampling : 4:2:0
Bit depth : 8 bits
Scan type : Progressive
Bits/(Pixel*Frame) : 0.603
Stream size : 26.0 GiB (89%)
Title : BDRemux.1080p by Silverok
Writing library : x264 core 155 r2901 7d0ff22
Encoding settings : cabac=1 / ref=4 / deblock=1:0:0 / analyse=0x3:0x133 / me=umh / subme=10 / psy=1 / psy_rd=1.00:0.15 / mixed_ref=1 / me_range=24 / chroma_me=1 / trellis=2 / 8x8dct=1 / cqm=0 / deadzone=21,11 / fast_pskip=1 / chroma_qp_offset=-6 / threads=12 / lookahead_threads=1 / sliced_threads=0 / slices=4 / nr=0 / decimate=1 / interlaced=0 / bluray_compat=1 / constrained_intra=0 / bframes=3 / b_pyramid=1 / b_adapt=2 / b_bias=0 / direct=3 / weightb=1 / open_gop=1 / weightp=1 / keyint=24 / keyint_min=1 / scenecut=40 / intra_refresh=0 / rc_lookahead=24 / rc=2pass / mbtree=1 / bitrate=30000 / ratetol=0.1 / qcomp=0.00 / qpmin=0 / qpmax=69 / qpstep=4 / cplxblur=20.0 / qblur=0.5 / vbv_maxrate=38000 / vbv_bufsize=30000 / nal_hrd=vbr / filler=0 / ip_ratio=1.40 / aq=1:1.00
Default : Yes
Forced : No
Color range : Limited
Color primaries : BT.709
Transfer characteristics : BT.709
Matrix coefficients : BT.709

Audio #1
ID : 2
Format : AC-3
Format/Info : Audio Coding 3
Codec ID : A_AC3
Duration : 2 h 4 min
Bit rate mode : Constant
Bit rate : 384 kb/s
Channel(s) : 6 channels
Channel positions : Front: L C R, Side: L R, LFE
Sampling rate : 48.0 kHz
Frame rate : 31.250 FPS (1536 SPF)
Bit depth : 16 bits
Compression mode : Lossy
Stream size : 342 MiB (1%)
Title : Профессиональный многоголосый [iTunes]
Language : Russian
Service kind : Complete Main
Default : Yes
Forced : No

Audio #2
ID : 3
Format : DTS
Format/Info : Digital Theater Systems
Format profile : MA / Core
Codec ID : A_DTS
Duration : 2 h 4 min
Bit rate mode : Variable / Constant
Bit rate : 3 421 kb/s / 1 509 kb/s
Channel(s) : 6 channels
Channel positions : Front: L C R, Side: L R, LFE
Sampling rate : 48.0 kHz
Frame rate : 93.750 FPS (512 SPF)
Bit depth : 24 bits
Compression mode : Lossless / Lossy
Stream size : 2.98 GiB (10%)
Language : Japanese
Default : No
Forced : No

Text #1
ID : 4
Format : UTF-8
Codec ID : S_TEXT/UTF8
Codec ID/Info : UTF-8 Plain Text
Duration : 1 h 57 min
Bit rate : 80 b/s
Count of elements : 1426
Stream size : 69.8 KiB (0%)
Title : Full
Language : Russian
Default : Yes
Forced : No

Text #2
ID : 5
Format : UTF-8
Codec ID : S_TEXT/UTF8
Codec ID/Info : UTF-8 Plain Text
Duration : 1 h 57 min
Bit rate : 43 b/s
Count of elements : 1315
Stream size : 37.2 KiB (0%)
Title : Full
Language : English
Default : No
Forced : No

Menu
00:00:00.000 : en:
00:10:59.533 : en:
00:19:11.650 : en:
00:30:49.556 : en:
00:41:51.175 : en:
00:51:26.750 : en:
01:00:51.856 : en:
01:13:19.436 : en:
01:24:50.627 : en:
01:37:31.095 : en:
01:45:22.691 : en:
01:55:19.162 : en:
02:04:50.733 : en:

pb.wtf



Скачать Третье убийство через торрент https://a.radikal.ru/a13/1807/5d/a34d99031842.png Скачать фильм Третье убийство через торрент бесплантно в хорошем качестве Описание: Совершено дерзкое убийство. Злодей схвачен и предстает перед судом. 30 лет назад этот человек по имени Мисуми уже совершал ... 10 10 3
Info! Золотая раздача, скачанное не засчитывается.
Торрент: Зарегистрирован [2018-07-28 04:04] · скачан: 14 раз
Статус: √ проверено
Размер: 29.35 GB
Как cкачать? Как скачать Третье убийство через торрент | qTorrent

% Раздел Тема Автор DL S | L
Азиатские фильмы [ 1.46 GB ] Третье убийство / Sandome no satsujin [2017 HDRip] MVO bober100 Скачать
1 | 0
Азиатские фильмы [ 9.33 GB ] Третье убийство / Sandome no satsujin / The Third Murder [2017 BDRip 1080p] MVO -Lexx- Скачать
1 | 0

28-11-2019 20:33  

Отключить всю рекламу на сайте

    Дорогой пользователь! Огромная просьба, поблагодарите релизера, оцените раздачу и оставьте свои комментарий, если Вы скачали Третье убийство через торрент бесплатно! Внесите свою лепту в развитие PiratBit!
    Комментировать посты могут только пользователи прошедшие не сложную регистрацию
    Показать сообщения:    

    Третье убийство через торрент
    Скачать бесплатно Третье убийство
    Третье убийство скачать торрент
    Третье убийство смотреть онлайн
    Cкачать фильм Третье убийство бесплатно
    Третье убийство скачать торрент в хорошем качестве
    Третье убийство смотреть онлайн бесплатно в хорошем качестве


    Вы не можете начинать темы
    Вы не можете отвечать на сообщения
    Вы не можете редактировать свои сообщения
    Вы не можете удалять свои сообщения
    Вы не можете голосовать в опросах
    Вы не можете прикреплять файлы к сообщениям
    Вы можете скачивать файлы