новый адрес
Ссылка на приватное зеркало всего за 1$. Внимание количество ограничено!!!

iTunes

1+1

iTunes

мы

iTunes

1

iTunes

Чернобыль

iTunes

Ральф против интернета

Лицензия

ПШазам

Лицензия

Оно 2

Лицензия

30
pack

Вам бонус

ВАЖНО

!!Акция!!

Alien_RageХит недели

RePack

Resident Evil 21

ИГРА 18+

pack

RePack

jed

!!Акция!!

Alien_Rage

RePack

fifa19

RePack

Assassins Creed: Odyssey

RePack

NEED FOR SPEED™ PAYBACK

3 сезон

9 сезон

Бесстыжие 9 сезон

Все сериалы

все сериалы на PB.wtf

RePack

FAR CRY 5
Ребята, катастрофически не хватает 1900р. для оплаты серверов за Октябрь (всвязи с блокировками трафик упал в 3 раза), 1-2р., выручайте.
  

Душа компании / Life of the Party (Бен Фэлкоун) [2018, комедия, BDRip-AVC] MVO [HDrezka Studio] pb.wtf

Душа компании через торрент pb.wtf

Раздают: 1 [ 0 KB/s ]
Размер: 1.61 GB | Добавлен: 1 год 4 мес. назад | Торрент скачан:494 раза
Скачать  

28-07-2018 04:46 Душа компании Скачать торрент  

Душа компании / Life of the Party
Год выпуска: 2018
Страна: США
Жанр: комедия
Продолжительность: 01:44:48
Перевод: Профессиональный (многоголосый) | HDRezka studio
Субтитры: Английские

Режиссер: Бен Фэлкоун

rating

В ролях:

Гиллиан Джейкобс, Мелисса МакКарти, Дебби Райан, Адриа Архона, Джули Боуэн, Люк Бенвард, Молли Гордон, Майя Рудольф, Стивен Рут, Крис Парнелл

Описание:

После неожиданного развода домохозяйка Диана решает перезапустить собственную жизнь и отправляется в колледж. Она попадает на один поток с родной дочерью, которая совсем не рада подобному повороту событий. Но Диану уже не остановить. С распростёртыми объятиями она принимает безумную студенческую жизнь.

Качество: BDRip-AVC
Формат: MKV

Видео: 1024x426 (2.40:1), 23,976 fps, x264 ~1 556 kbps avg, 0.149 bit/pixel
Аудио#1: 48 kHz, AC3 Dolby Digital, 2 (L,R) ch, ~192.00 kbps avg | RUS (HDRezka)
Аудио#2: 48 kHz, AC3 Dolby Digital, 3/2 (L,C,R,l,r) + LFE ch, ~448.00 kbps avg | ENG
скриншот  скриншот  скриншот  скриншот  скриншот  

Общее
Уникальный идентификатор : 77383600867890919774408002250081135148 (0x3A378A16E0E503D8F73B21943A5D6A2C)
Полное имя : F:OlLanDGroupLife.Of.The.Party.2018.BDRip(AVC).OlLanDGroup.mkv
Формат : Matroska
Версия формата : Version 4 / Version 2
Размер файла : 1,61 Гбайт
Продолжительность : 1 ч. 44 м.
Общий поток : 2198 Кбит/сек
Название фильма : Life.Of.The.Party.2018 #TorpedoUK#
Дата кодирования : UTC 2018-07-28 04:00:44
Программа кодирования : mkvmerge v25.0.0 ('Prog Noir') 64-bit
Библиотека кодирования : libebml v1.3.6 + libmatroska v1.4.9

Видео
Идентификатор : 1
Формат : AVC
Формат/Информация : Advanced Video Codec
Профиль формата : High@L4.1
Параметр CABAC формата : Да
Параметр ReFrames формата : 10 кадров
Идентификатор кодека : V_MPEG4/ISO/AVC
Продолжительность : 1 ч. 44 м.
Битрейт : 1556 Кбит/сек
Ширина : 1024 пикселя
Высота : 426 пикселей
Соотношение сторон : 2,40:1
Режим частоты кадров : Постоянный
Частота кадров : 23,976 (24000/1001) кадра/сек
Цветовое пространство : YUV
Субдискретизация насыщенности : 4:2:0
Битовая глубина : 8 бит
Тип развёртки : Прогрессивная
Бит/(Пиксели*Кадры) : 0.149
Размер потока : 1,14 Гбайт (71%)
Библиотека кодирования : x264 core 146 r2538 121396c
Настройки программы : cabac=1 / ref=10 / deblock=1:-3:-3 / analyse=0x3:0x113 / me=umh / subme=11 / psy=1 / psy_rd=0.99:0.05 / mixed_ref=1 / me_range=48 / chroma_me=1 / trellis=2 / 8x8dct=1 / cqm=0 / deadzone=21,11 / fast_pskip=1 / chroma_qp_offset=-3 / threads=6 / lookahead_threads=1 / sliced_threads=0 / nr=0 / decimate=1 / interlaced=0 / bluray_compat=0 / constrained_intra=0 / bframes=10 / b_pyramid=2 / b_adapt=2 / b_bias=0 / direct=3 / weightb=1 / open_gop=0 / weightp=2 / keyint=240 / keyint_min=23 / scenecut=40 / intra_refresh=0 / rc_lookahead=40 / rc=2pass / mbtree=1 / bitrate=1556 / ratetol=1.0 / qcomp=0.60 / qpmin=0 / qpmax=69 / qpstep=4 / cplxblur=20.0 / qblur=0.5 / vbv_maxrate=50000 / vbv_bufsize=62500 / nal_hrd=none / filler=0 / ip_ratio=1.40 / aq=1:1.00
Язык : English
Default : Да
Forced : Нет

Аудио #1
Идентификатор : 2
Формат : AC-3
Формат/Информация : Audio Coding 3
Расширение режима : CM (complete main)
Параметр Endianness формата : Big
Идентификатор кодека : A_AC3
Продолжительность : 1 ч. 44 м.
Вид битрейта : Постоянный
Битрейт : 192 Кбит/сек
Каналы : 2 канала
Расположение каналов : Front: L R
Частота : 48,0 КГц
Частота кадров : 31,250 кадров/сек (1536 spf)
Битовая глубина : 16 бит
Метод сжатия : С потерями
Размер потока : 144 Мбайт (9%)
Заголовок : MVO [HDRezka Studio]
Язык : Russian
Default : Да
Forced : Нет

Аудио #2
Идентификатор : 3
Формат : AC-3
Формат/Информация : Audio Coding 3
Расширение режима : CM (complete main)
Параметр Endianness формата : Big
Идентификатор кодека : A_AC3
Продолжительность : 1 ч. 44 м.
Вид битрейта : Постоянный
Битрейт : 448 Кбит/сек
Каналы : 6 каналов
Расположение каналов : Front: L C R, Side: L R, LFE
Частота : 48,0 КГц
Частота кадров : 31,250 кадров/сек (1536 spf)
Битовая глубина : 16 бит
Метод сжатия : С потерями
Размер потока : 336 Мбайт (20%)
Заголовок : Original
Язык : English
Default : Нет
Forced : Нет

Текст #1
Идентификатор : 4
Формат : UTF-8
Идентификатор кодека : S_TEXT/UTF8
Идентификатор кодека/Информация : UTF-8 Plain Text
Продолжительность : 1 ч. 38 м.
Битрейт : 89 бит/сек
Count of elements : 1927
Размер потока : 64,8 Кбайт (0%)
Заголовок : Full
Язык : English
Default : Нет
Forced : Нет

Текст #2
Идентификатор : 5
Формат : UTF-8
Идентификатор кодека : S_TEXT/UTF8
Идентификатор кодека/Информация : UTF-8 Plain Text
Продолжительность : 1 ч. 40 м.
Битрейт : 97 бит/сек
Count of elements : 2143
Размер потока : 71,8 Кбайт (0%)
Заголовок : SDH
Язык : English
Default : Нет
Forced : Нет

Меню
00:00:00.000 : en:Chapter 1
00:11:50.668 : en:Chapter 2
00:20:13.003 : en:Chapter 3
00:32:38.081 : en:Chapter 4
00:43:28.230 : en:Chapter 5
00:52:32.190 : en:Chapter 6
01:03:31.682 : en:Chapter 7
01:13:38.163 : en:Chapter 8
01:25:30.166 : en:Chapter 9
01:39:40.599 : en:Chapter 10

pb.wtf



Скачать Душа компании через торрент https://i105.fastpic.ru/big/2018/0728/df/10ad015b3ac9dc7b53d610d187b71bdf.jpg Скачать фильм Душа компании через торрент бесплантно в хорошем качестве Описание: После неожиданного развода домохозяйка Диана решает перезапустить собственную жизнь и отправляется в колледж. Она попадает на ... 9 10 11
Торрент: Зарегистрирован [2018-07-28 04:46] · скачан: 494 раз
Статус: T временная
Размер: 1.61 GB
Как cкачать? Как скачать Душа компании через торрент | qTorrent

% Раздел Тема Автор DL S | L
T Фильмы 2018 [DVDrip, WEB-DLRip, HDrip] (DUB, MVO) [ 1.46 GB ] Душа компании / Life of the Party [2018 HDRip Чистый звук] PsYcho Скачать
6 | 0
T Ultra HD (UHD: 2K, 4K, 8K) — видео сверхвысокой чёткости [ 20.54 GB ] Душа компании / Life of the Party [2018 UHD WEBRip 2160p] DUB +MVO [HDrezka Studio] bober100 Скачать
1 | 0
T Фильмы (Blu-ray, BD-Remux, HDDVD) [ 24.47 GB ] Душа компании / Life of the Party [2018 BD Remux 1080p] MVO [HDrezka Studio] bober100 Скачать
1 | 0
T Фильмы (WEB-DL 720p, 1080p) [ 3.75 GB ] Душа компании / Life of the Party [2018 WEB-DL 1080p] MVO [HDrezka Studio] bober100 Скачать
4 | 0
T R.G. Resident & PiratVoice - Фильмы, Видео [ 1.37 GB ] Душа компании / Life of the Party [2018 WEB-DLRip ] MVO [HDRezka Studio] -Lexx- Скачать
2 | 0
T Фильмы с украинским озвучиванием [ 1.13 GB ] Душа компании / Life of the Party [2018 WEB-DLRip-AVC] [Ukr DUB] killermax2013 Скачать
1 | 0
Отключить всю рекламу на сайте
    Дорогой пользователь! Огромная просьба, поблагодарите релизера, оцените раздачу и оставьте свои комментарий, если Вы скачали Душа компании через торрент бесплатно! Внесите свою лепту в развитие PiratBit!
    Комментировать посты могут только пользователи прошедшие не сложную регистрацию
    Показать сообщения:    

    Душа компании через торрент
    Скачать бесплатно Душа компании
    Душа компании скачать торрент
    Душа компании смотреть онлайн
    Cкачать фильм Душа компании бесплатно
    Душа компании скачать торрент в хорошем качестве
    Душа компании смотреть онлайн бесплатно в хорошем качестве


    Вы не можете начинать темы
    Вы не можете отвечать на сообщения
    Вы не можете редактировать свои сообщения
    Вы не можете удалять свои сообщения
    Вы не можете голосовать в опросах
    Вы не можете прикреплять файлы к сообщениям
    Вы можете скачивать файлы