2 сезон

iTunes

MVO

1

2 сезон

iTunes

iTunes

1 сезон

RePack

30

Ultimate

ВАЖНО

ИГРА 18+

pack

RePack

MK11
pack

Легкие деньги

RePack

jed

RePack

fifa19

RePack

RDR2

RePack

NEED FOR SPEED™ PAYBACK

4 сезон

9 сезон

Бесстыжие 9 сезон

Все сериалы

все сериалы на PB.wtf

RePack

FAR CRY 5

Anonymous, добрый день, мы не успеваем собрать деньги на оплату серверов за декабрь и январь, помогите нам пожалуйста в это трудное время. В качестве благодарности мы отключим Вам всю рекламу на сайте (укажите свой ник в строку Ваше имя)!

×
  
Magnet ссылка

Рэмпейдж / Rampage (Брэд Пейтон) [2018, фантастика, боевик, приключения, BDRip 1080p, 60 fps] DUB (rus, ukr) [Лицензия] pb.wtf

Рэмпейдж через торрент pb.wtf

Раздают: 1 [ 0 KB/s ]
Размер: 9.76 GB | Добавлен: 2 года 6 мес. назад | Торрент скачан:380 раз
Скачать  

28-07-2018 07:39 Рэмпейдж Скачать торрент  

Рэмпейдж / Rampage
««Больше, чем скала»»
Год выпуска: 2018
Страна: США
Жанр: фантастика, боевик, приключения
Продолжительность: 01:47:16
Перевод: Дублированный | Лицензия
Субтитры: Русские (forced, full), английские

Режиссер: Брэд Пейтон

rating

В ролях:

Дуэйн Джонсон (Davis Okoye), Наоми Харрис (Dr. Kate Caldwell), Малин Акерман (Claire Wyden), Джеффри Дин Морган (Harvey Russell), Джейк Лэси (Brett Wyden), Джо Манганьелло (Burke), Марли Шелтон (Dr. Kerry Atkins), П.Дж. Бирн (Nelson), Деметриус Гросс (Colonel Blake), Джек Куэйд (Connor), Бриэнн Хилл (Amy), Мэтт Джералд (Zammit)
Описание:

Приматолог Дэвис Окойи предпочитает держаться подальше от людей и дружит с Джорджем, удивительно умным альфа-самцом - гориллой, которого он воспитывал с самого рождения. Но вышедший из-под контроля генетический эксперимент превращает послушную обезьяну в яростного монстра. Более того, вскоре обнаруживается, что существуют и другие модифицированные хищники. Пока свежесозданные чудовища превращают в руины Северную Америку, стирая с лица Земли все, что попадается у них на пути, Окойи вместе с опальным генным инженером пытается изобрести антидот, прорываясь по бесконечному полю боя не только, чтобы предотвратить глобальную катастрофу, но и спасти бесстрашное существо, которое когда-то было его другом.

Качество: BDRip 1080p | 60 fps
Формат: MKV

Видео: MPEG-4 AVC, 1920x800 (2.40:1), 12.0 Mb/s, 59,940 fps, 0,130 bpp
Аудио#1: Русский / AC3 / 5.1 / 48 kHz / 448 kbps / 16 bit
Аудио#2: Украинский / AC3 / 2.0 / 48 kHz / 192 kbps / 16 bit
Аудио#3: Английский / AC3 / 5.1 / 48 kHz / 448 kbps / 16 bit
скриншот  скриншот  скриншот  

скриншот  скриншот  скриншот  

General
Unique ID : 167234797267400341666683016327920525600 (0x7DD04018E8B59D051C6AF75D0EC6A120)
Complete name : E:Rampage.2018.BDRip.1080p.60.FPS.and77200.mkv
Format : Matroska
Format version : Version 4 / Version 2
File size : 9.76 GiB
Duration : 1 h 47 min
Overall bit rate : 13.0 Mb/s
Movie name : Рэмпейдж.2018 - and77200
Encoded date : UTC 2018-07-19 15:29:44
Writing application : mkvmerge v20.0.0 ('I Am The Sun') 64-bit
Writing library : libebml v1.3.5 + libmatroska v1.4.8

Video
ID : 1
Format : AVC
Format/Info : Advanced Video Codec
Format profile : High@L4.1
Format settings, CABAC : Yes
Format settings, ReFrames : 4 frames
Codec ID : V_MPEG4/ISO/AVC
Duration : 1 h 47 min
Bit rate : 12.0 Mb/s
Width : 1 920 pixels
Height : 800 pixels
Display aspect ratio : 2.40:1
Frame rate mode : Constant
Frame rate : 59.940 (59940/1000) FPS
Color space : YUV
Chroma subsampling : 4:2:0
Bit depth : 8 bits
Scan type : Progressive
Bits/(Pixel*Frame) : 0.130
Stream size : 8.94 GiB (92%)
Writing library : x264 core 146 r2538 121396c
Encoding settings : cabac=1 / ref=4 / deblock=1:0:0 / analyse=0x3:0x113 / me=umh / subme=9 / psy=1 / psy_rd=1.00:0.10 / mixed_ref=1 / me_range=32 / chroma_me=1 / trellis=1 / 8x8dct=1 / cqm=0 / deadzone=21,11 / fast_pskip=0 / chroma_qp_offset=-3 / threads=6 / lookahead_threads=1 / sliced_threads=0 / nr=0 / decimate=1 / interlaced=0 / bluray_compat=0 / constrained_intra=0 / bframes=16 / b_pyramid=2 / b_adapt=2 / b_bias=0 / direct=3 / weightb=1 / open_gop=0 / weightp=2 / keyint=250 / keyint_min=25 / scenecut=40 / intra_refresh=0 / rc_lookahead=40 / rc=2pass / mbtree=1 / bitrate=12000 / ratetol=1.0 / qcomp=0.60 / qpmin=0 / qpmax=69 / qpstep=4 / cplxblur=20.0 / qblur=0.5 / vbv_maxrate=14000 / vbv_bufsize=14000 / nal_hrd=none / filler=0 / ip_ratio=1.40 / aq=1:1.00
Language : English
Default : Yes
Forced : No

Audio #1
ID : 2
Format : AC-3
Format/Info : Audio Coding 3
Mode extension : CM (complete main)
Format settings, Endianness : Big
Codec ID : A_AC3
Duration : 1 h 47 min
Bit rate mode : Constant
Bit rate : 448 kb/s
Channel(s) : 6 channels
Channel positions : Front: L C R, Side: L R, LFE
Sampling rate : 48.0 kHz
Frame rate : 31.250 FPS (1536 spf)
Bit depth : 16 bits
Compression mode : Lossy
Stream size : 344 MiB (3%)
Title : Дубляж - Лицензия
Language : Russian
Default : Yes
Forced : No

Audio #2
ID : 3
Format : AC-3
Format/Info : Audio Coding 3
Mode extension : CM (complete main)
Format settings, Endianness : Big
Codec ID : A_AC3
Duration : 1 h 47 min
Bit rate mode : Constant
Bit rate : 192 kb/s
Channel(s) : 2 channels
Channel positions : Front: L R
Sampling rate : 48.0 kHz
Frame rate : 31.250 FPS (1536 spf)
Bit depth : 16 bits
Compression mode : Lossy
Stream size : 147 MiB (1%)
Title : Dub
Language : Ukrainian
Default : No
Forced : No

Audio #3
ID : 4
Format : AC-3
Format/Info : Audio Coding 3
Mode extension : CM (complete main)
Format settings, Endianness : Big
Codec ID : A_AC3
Duration : 1 h 47 min
Bit rate mode : Constant
Bit rate : 448 kb/s
Channel(s) : 6 channels
Channel positions : Front: L C R, Side: L R, LFE
Sampling rate : 48.0 kHz
Frame rate : 31.250 FPS (1536 spf)
Bit depth : 16 bits
Compression mode : Lossy
Stream size : 344 MiB (3%)
Language : English
Default : No
Forced : No

Text #1
ID : 5
Format : UTF-8
Codec ID : S_TEXT/UTF8
Codec ID/Info : UTF-8 Plain Text
Duration : 1 h 32 min
Bit rate : 2 b/s
Count of elements : 31
Stream size : 1.75 KiB (0%)
Title : Forced
Language : Russian
Default : Yes
Forced : Yes

Text #2
ID : 6
Format : UTF-8
Codec ID : S_TEXT/UTF8
Codec ID/Info : UTF-8 Plain Text
Duration : 1 h 46 min
Bit rate : 83 b/s
Count of elements : 1292
Stream size : 65.0 KiB (0%)
Title : Full
Language : Russian
Default : No
Forced : No

Text #3
ID : 7
Format : UTF-8
Codec ID : S_TEXT/UTF8
Codec ID/Info : UTF-8 Plain Text
Duration : 1 h 37 min
Bit rate : 56 b/s
Count of elements : 1352
Stream size : 40.6 KiB (0%)
Language : English
Default : No
Forced : No

Menu
00:00:00.000 : en:00:00:00.000
00:12:58.528 : en:00:12:58.528
00:19:56.278 : en:00:19:56.278
00:29:53.291 : en:00:29:53.291
00:40:35.391 : en:00:40:35.391
00:49:10.906 : en:00:49:10.906
01:02:38.171 : en:01:02:38.171
01:10:37.650 : en:01:10:37.650
01:20:10.472 : en:01:20:10.472
01:29:23.608 : en:01:29:23.608
01:39:43.186 : en:01:39:43.186

pb.wtf



Скачать Рэмпейдж через торрент https://img11.lostpic.net/2018/07/28/9d68b5a3c49bfac4c41f7b0961a78ac3.png Скачать фильм Рэмпейдж через торрент бесплантно в хорошем качестве Описание: Приматолог Дэвис Окойи предпочитает держаться подальше от людей и дружит с Джорджем, удивительно умным альфа-самцом - гориллой, ... 9.1 10 11
Info! Золотая раздача, скачанное не засчитывается.
Торрент: Зарегистрирован [2018-07-28 07:39] · скачан: 380 раз
Статус: √ проверено
Размер: 9.76 GB
Как cкачать? Как скачать Рэмпейдж через торрент | UTorrent

% Раздел Тема Автор DL S | L
Фильмы (HD 720p, 1080p) (48-60 fps) [ 3.66 GB ] Рэмпейдж / Rampage [2018 BDRip 720p / 60 FPS ] 60fps от R.G. HD-Films slaventi-69 Скачать
1 | 0
Ultra HD (UHD: 2K, 4K, 8K) — видео сверхвысокой чёткости [ 44.99 GB ] Рэмпейдж / Rampage [2018 UHD Remux 2160p] [Dolby Vision TV] DUB [] bober100 Скачать
1 | 0
Фильмы (Blu-ray, BD-Remux, HDDVD) [ 23.18 GB ] Рэмпейдж / Rampage [2018 Blu-Ray Remux 1080p] [] killermax2013 Скачать
1 | 0
Фильмы (Blu-ray, BD-Remux, HDDVD) [ 36.23 GB ] Рэмпейдж / Rampage [2018 Blu-ray EUR 1080p] DUB [] bober100 Скачать
1 | 0
Фильмы 2018 [DVDrip, WEB-DLRip, HDrip] (DUB, MVO) [ 1.46 GB ] Рэмпейдж / Rampage [2018 BDRip] - [] Twi7ter Скачать
1 | 0
3D Фильмы [ 37.29 GB ] Рэмпейдж / Rampage [2018 Blu-Ray EUR 1080p] [3D] - [] sheker187 Скачать
1 | 0
Фильмы [HD 720p, 1080p] (Хороший звук DUB, MVO) [ 5.17 GB ] Рэмпейдж / Rampage [2018 BDRip 1080p HEVC ()] Мичман37 Скачать
1 | 0

28-11-2019 20:33  

Отключить всю рекламу на сайте

28-07-2018 07:54 Рэмпейдж Скачать торрент  

За такое кодирование даже 1 поставить сложно!pb.wtf



28-07-2018 08:27 Рэмпейдж Скачать торрент  

Вчера смотрел этот релиз, сделано так как я делал когда-то (артефакт на артефакте). Фильмец на 4 из 10...Короче Tiberiumsun69 вне конкуренцииpb.wtf



28-07-2018 11:35 Рэмпейдж Скачать торрент  

Ressident, тут как раз дело в том что сильно замазывают артефакты.
Tiberiumsun69, что то не видать его.pb.wtf



28-07-2018 17:59 Рэмпейдж Скачать торрент  

еnvy писал(а):

сложно!

Как раз легко) включил прогу и частота под экран подстраивается даже для 24к.с видеофайловpb.wtf



29-07-2018 07:16 Рэмпейдж Скачать торрент  

FaLLn29, я про кодирование с дорисованными кадрами.pb.wtf



    Дорогой пользователь! Огромная просьба, поблагодарите релизера, оцените раздачу и оставьте свои комментарий, если Вы скачали Рэмпейдж через торрент бесплатно! Внесите свою лепту в развитие PiratBit!
    Комментировать посты могут только пользователи прошедшие не сложную регистрацию
    Показать сообщения:    

    Рэмпейдж через торрент
    Скачать бесплатно Рэмпейдж
    Рэмпейдж скачать торрент
    Рэмпейдж смотреть онлайн
    Cкачать фильм Рэмпейдж бесплатно
    Рэмпейдж скачать торрент в хорошем качестве
    Рэмпейдж смотреть онлайн бесплатно в хорошем качестве


    Вы не можете начинать темы
    Вы не можете отвечать на сообщения
    Вы не можете редактировать свои сообщения
    Вы не можете удалять свои сообщения
    Вы не можете голосовать в опросах
    Вы не можете прикреплять файлы к сообщениям
    Вы можете скачивать файлы