новый адрес пиратбит piratbit
Мега распродажа FORZA HORIZON 4 ULTIMATE+ВСЕ DLC+ОНЛАЙН всего за 499р. 349 руб. (супер цена). Внимание количество ограничено!!!

iTunes

1+1

iTunes

мы

iTunes

1

iTunes

Чернобыль

iTunes

Ральф против интернета

Лицензия

ПШазам

Лицензия

Игра престолов

Лицензия

30
pack

ВАЖНО

!!Акция!!

Alien_RageХит недели

RePack

Resident Evil 21

ИГРА 18+

pack

RePack

Metro:Exodus

!!Акция!!

Alien_Rage

RePack

fifa19

RePack

Assassins Creed: Odyssey

RePack

NEED FOR SPEED™ PAYBACK

3 сезон

9 сезон

Бесстыжие 9 сезон

Все сериалы

все сериалы на PB.wtf

RePack

FAR CRY 5
Ребята, катастрофически не хватает 1900р. для оплаты серверов за Октябрь (всвязи с блокировками трафик упал в 3 раза), 1-2р., выручайте.
  

Гоголь. Вий (Егор Баранов) [2018, детектив, приключения, драма, BDRip] [Лицензия] pb.wtf

Гоголь. Вий через торрент pb.wtf

Раздают: 1 [ 0 KB/s ]
Размер: 1.45 GB | Добавлен: 1 год 3 мес. назад | Торрент скачан:554 раза
Скачать  

28-07-2018 18:53 Гоголь. Вий Скачать торрент  

Гоголь. Вий
Год выпуска: 2018
Страна: Россия
Жанр: детектив, приключения, драма
Продолжительность: 01:39:13
Перевод: Не требуется | Лицензия
Субтитры: отсутствуют

Режиссер: Егор Баранов

rating

В ролях:

Александр Петров, Олег Меньшиков, Евгений Стычкин, Таисия Вилкова, Артем Ткаченко, Екатерина Бурлакова, Сергей Бадюк, Ян Цапник, Алексей Вертков, Марта Тимофеева

Описание:

Писарь из Санкт-Петербурга Николай Гоголь бросает вызов загадочному тёмному Всаднику, который жестоко расправляется с девушками в окрестностях села Диканька. Собрав команду из местного полицейского, пьяницы-доктора, суеверного кузнеца и странствующего философа-экзорциста, Гоголь пытается заманить злодея в ловушку, но на его пути встает самое жуткое порождение нечистой силы - Вий, один взгляд которого способен высосать душу смертного. Неожиданно для себя Гоголь выясняет, что с потусторонними силами его связывают не только таинственные видения.

Качество: BDRip
Формат: AVI

Видео: Xvid, 720x304, ~1642 kbps, 24,000 fps
Аудио: русский, AC3 5.1, 48 kHz, 448 kbps | Лицензия
скриншот  скриншот  скриншот  скриншот  скриншот  

General
Полное имя : F:TorrentGogolViyAVI.avi
Формат : AVI
Формат/Информация : Audio Video Interleave
Размер файла : 1.45 GiB
Продолжительность : 1 h 39 min
Общий поток : 2 099 kb/s
Библиотека кодирования : VirtualDub build 35491/release

Video
Идентификатор : 0
Формат : MPEG-4 Visual
Профиль формата : Advanced Simple@L5
Настройки формата : BVOP2 / Custom Matrix
Параметр BVOP формата : 2
Параметр QPel формата : No
Параметр GMC формата : No warppoints
Параметр матрицы формата : Custom
Идентификатор кодека : XVID
Идентификатор кодека/Подсказка : XviD
Продолжительность : 1 h 39 min
Битрейт : 1 642 kb/s
Ширина : 720 pixels
Высота : 304 pixels
Соотношение сторон : 2.35:1
Частота кадров : 24.000 FPS
Цветовое пространство : YUV
Субдискретизация насыщенности : 4:2:0
Битовая глубина : 8 bits
Тип развёртки : Progressive
Метод сжатия : Lossy
Бит/(Пиксели*Кадры) : 0.313
Размер потока : 1.14 GiB (78%)
Библиотека кодирования : XviD 67

Audio
Идентификатор : 1
Формат : AC-3
Формат/Информация : Audio Coding 3
Идентификатор кодека : 2000
Продолжительность : 1 h 39 min
Вид битрейта : Constant
Битрейт : 448 kb/s
Каналы : 6 channels
Расположение каналов : Front: L C R, Side: L R, LFE
Частота : 48.0 kHz
Частота кадров : 31.250 FPS (1536 SPF)
Битовая глубина : 16 bits
Метод сжатия : Lossy
Размер потока : 318 MiB (21%)
Выравнивание : Aligned on interleaves
Продолжительность промежутка : 42 ms (1.00 video frame)
Время предзагрузки промежутка : 512 ms
pb.wtf



Скачать Гоголь. Вий через торрент http://i104.fastpic.ru/big/2018/0728/78/395bd7d08cb3b4758718a9972a1d1978.jpeg Скачать фильм Гоголь. Вий через торрент бесплантно в хорошем качестве Описание: Писарь из Санкт-Петербурга Николай Гоголь бросает вызов загадочному тёмному Всаднику, который жестоко расправляется с девушками в ... 8.5 10 10
Info! Золотая раздача, скачанное не засчитывается.
Торрент: Зарегистрирован [2018-07-28 18:53] · скачан: 554 раз
Статус: √ проверено
Размер: 1.45 GB
Как cкачать? Как скачать Гоголь. Вий через торрент | qTorrent

% Раздел Тема Автор DL S | L
Наши новые фильмы 2018-2019 [ 1.5 GB ] Гоголь. Вий [2018 BDRip-AVC] [Русский] [] - ExKinoRay Enigma2010 Скачать
3 | 0
Наши фильмы (Blu-ray, BD-Remux, HDDVD) [ 20.25 GB ] Гоголь. Вий [2018 BD Remux 1080p] [] bober100 Скачать
1 | 0
Наши новые фильмы 2018-2019 [ 1.46 GB ] Гоголь. Вий [2018 BDRip] [Русский] [] Twi7ter Скачать
5 | 0
Наши фильмы (HD, WEB-DL 720p, 1080p) [ 8.42 GB ] Гоголь. Вий [2018 BDRip 1080p] [] bober100 Скачать
2 | 0
Наши новые фильмы 2018-2019 [ 745 MB ] Гоголь. Вий [2018 HDRip] [] bober100 Скачать
3 | 0
Наши фильмы (HD, WEB-DL 720p, 1080p) [ 4.95 GB ] Гоголь. Вий [2018 BDRip 720p] [] bober100 Скачать
1 | 0
Наши новые фильмы 2018-2019 [ 2.17 GB ] Гоголь. Вий [2018 BDRip-AVC] [] bober100 Скачать
3 | 0


>> Регистрируемся здесь <<






Отзывы и комментарии о схеме читаем и пишем здесь: ---> Отзывы и комментарии о схеме

Новые благодарочки в телеграм довольных пользователей:
скриншот   скриншот   скриншот   скриншот   скриншот
    Дорогой пользователь! Огромная просьба, поблагодарите релизера, оцените раздачу и оставьте свои комментарий, если Вы скачали Гоголь. Вий через торрент бесплатно! Внесите свою лепту в развитие PiratBit!
    Комментировать посты могут только пользователи прошедшие не сложную регистрацию
    Показать сообщения:    

    Гоголь. Вий через торрент
    Скачать бесплатно Гоголь. Вий
    Гоголь. Вий скачать торрент
    Гоголь. Вий смотреть онлайн
    Cкачать фильм Гоголь. Вий бесплатно
    Гоголь. Вий скачать торрент в хорошем качестве
    Гоголь. Вий смотреть онлайн бесплатно в хорошем качестве


    Вы не можете начинать темы
    Вы не можете отвечать на сообщения
    Вы не можете редактировать свои сообщения
    Вы не можете удалять свои сообщения
    Вы не можете голосовать в опросах
    Вы не можете прикреплять файлы к сообщениям
    Вы можете скачивать файлы