Ссылка на приватное зеркало нашего сайта всего за 1$. Внимание количество ограничено!!!

2 сезон

iTunes

1 сезон

1

2 сезон

2 сезон

iTunes

1 сезон

RePack

30

Ultimate

ВАЖНО

ИГРА 18+

pack

RePack

MK11
pack

Забери бонус

RePack

jed

!!Акция!!

Alien_Rage

RePack

fifa19

RePack

Assassins Creed: Odyssey

RePack

NEED FOR SPEED™ PAYBACK

4 сезон

9 сезон

Бесстыжие 9 сезон

Все сериалы

все сериалы на PB.wtf

RePack

FAR CRY 5
  

Грешница / The Sinner / Сезон: 1 / Серии: 1-8 из 8 (Антонио Кампос, Брэд Андерсон) [2017, триллер, WEBRip 1080p] MVO [LostFilm] pb.wtf

Грешница через торрент pb.wtf

Размер: 23.99 GB | Добавлен: 2 года 3 мес. назад | Торрент скачан:85 раз
Скачать  

28-07-2018 21:41 Грешница Скачать торрент  

Грешница / The Sinner Год выпуска: 2017
Страна: США
Жанр: Фантастика, триллер, драма
Продолжительность: ~00:46:00
Перевод: Профессиональный (многоголосый закадровый) | LostFilm
Субтитры: английские

Режиссёр: Антонио Кампос, Брэд Андерсон

В ролях:

Джессика Бил, Джейкоб Бергер, Спенсер Гранезе, Эдриэнн Ловетт, Кристофер Эбботт, Патти Д Арбанвиль, Элейн дель Валье, Роберт Фунаро и др.

Описание:

История о молодой матери, совершающей ужасные акты насилия, понятия не имея, почему, и детективе, который становится одержим делом, стремится углубиться в прошлое женщины и выяснить причины такого поведения.

Доп. информация:

rating

Качество: WEBRip 1080p
Формат: MKV

Видео: AVC/H.264, 1920x1080 (16:9), ~11.7 Mbps, 23.976 fps, 0.236 bit/pixel
Аудио # Rus: AC3, 48 kHz, 6 ch, 640 kbps
Аудио # Eng: AC3, 48 kHz, 6 ch, 640 kbps


Реклама: отсутствует
Релиз: Grandfather61
Работа со звуком: Grandfather61
Дорожка #1 получена наложением выделенных голосов от «LostFilm» на центр оригинального AC3
General
Unique ID                                : 229654809128069345953056884885153684172 (0xACC5E849DFC10D96963A7B943A909ACC)
Complete name                            : G:\Films\The.Sinner.S01.1080p.WEBRip.LostFilm.DD5.1\The.Sinner.S01E01.1080p.WEBRip.LostFilm.DD5.1.mkv
Format                                   : Matroska
Format version                           : Version 4 / Version 2
File size                                : 4.23 GiB
Duration                                 : 46mn 27s
Overall bit rate mode                    : Variable
Overall bit rate                         : 13.0 Mbps
Encoded date                             : UTC 2017-08-26 13:28:13
Writing application                      : mkvmerge v15.0.0 ('Duel with the Devil') 64-bit
Writing library                          : libebml v1.3.5 + libmatroska v1.4.5

Video
ID                                       : 1
Format                                   : AVC
Format/Info                              : Advanced Video Codec
Format profile                           : High@L4
Format settings, CABAC                   : Yes
Format settings, ReFrames                : 4 frames
Codec ID                                 : V_MPEG4/ISO/AVC
Duration                                 : 46mn 27s
Bit rate mode                            : Variable
Bit rate                                 : 11.7 Mbps
Maximum bit rate                         : 15.0 Mbps
Width                                    : 1 920 pixels
Height                                   : 1 080 pixels
Display aspect ratio                     : 16:9
Frame rate mode                          : Constant
Frame rate                               : 23.976 (24000/1001) fps
Color space                              : YUV
Chroma subsampling                       : 4:2:0
Bit depth                                : 8 bits
Scan type                                : Progressive
Bits/(Pixel*Frame)                       : 0.236
Stream size                              : 3.81 GiB (90%)
Language                                 : English
Default                                  : Yes
Forced                                   : No
Color range                              : Limited
Color primaries                          : BT.709
Transfer characteristics                 : BT.709
Matrix coefficients                      : BT.709

Audio #1
ID                                       : 2
Format                                   : AC-3
Format/Info                              : Audio Coding 3
Mode extension                           : CM (complete main)
Format settings, Endianness              : Big
Codec ID                                 : A_AC3
Duration                                 : 46mn 27s
Bit rate mode                            : Constant
Bit rate                                 : 640 Kbps
Channel(s)                               : 6 channels
Channel positions                        : Front: L C R, Side: L R, LFE
Sampling rate                            : 48.0 KHz
Frame rate                               : 31.250 fps (1536 spf)
Compression mode                         : Lossy
Stream size                              : 213 MiB (5%)
Title                                    : LostFilm 5.1
Language                                 : Russian
Default                                  : Yes
Forced                                   : No

Audio #2
ID                                       : 3
Format                                   : AC-3
Format/Info                              : Audio Coding 3
Mode extension                           : CM (complete main)
Format settings, Endianness              : Big
Codec ID                                 : A_AC3
Duration                                 : 46mn 27s
Bit rate mode                            : Constant
Bit rate                                 : 640 Kbps
Channel(s)                               : 6 channels
Channel positions                        : Front: L C R, Side: L R, LFE
Sampling rate                            : 48.0 KHz
Frame rate                               : 31.250 fps (1536 spf)
Compression mode                         : Lossy
Stream size                              : 213 MiB (5%)
Title                                    : eng
Language                                 : English
Default                                  : No
Forced                                   : No

Text
ID                                       : 4
Format                                   : UTF-8
Codec ID                                 : S_TEXT/UTF8
Codec ID/Info                            : UTF-8 Plain Text
Duration                                 : 46mn 4s
Bit rate                                 : 59 bps
Count of elements                        : 793
Stream size                              : 20.0 KiB (0%)
Title                                    : eng
Language                                 : English
Default                                  : No
Forced                                   : No
Внимание! Раздача ведётся путём добавления новых серий; при каждом добавлении создаётся новый торрент. Чтобы начать докачку новой серии, пользователям необходимо сделать следующее:
(1) остановить скачивание,
(2) удалить старый торрент у себя из клиента (старые серии удалять не надо),
(3) скачать новый торрент и запустить его у себя в клиенте вместо старого, при этом указать клиенту путь в старую папку куда и должно происходить скачивание новых серий.

Ваш клиент при этом должен произвести хеширование (проверку) старой папки (если не производит сам - помогите ему сделать это), и будет докачивать только те серии которых у вас ещё нет. Старые серии при этом не удаляются, а продолжают раздаваться!

Eсли вы уже удалили старые серии, то предотвратить повторную закачку старых серий можно, отжав галочку в соответствующих местах при запуске нового торрента. По возможности, желательно не удалять старые серии как можно дольше чтобы релизёр не столько продолжал раздавать старые серии, а смог сконцентрироваться на новых.
Приятного просмотра!pb.wtf



Скачать Грешница через торрент http://i93.fastpic.ru/big/2017/0808/e6/6b0c9fc27080f4da64ed65abe7ec9fe6.png Скачать фильм Грешница через торрент бесплантно в хорошем качестве Описание: История о молодой матери, совершающей ужасные акты насилия, понятия не имея, почему, и детективе, который становится одержим ... 10 10 4
Info! Серебряная раздача, засчитывается только 50% скачанного.
Торрент: Зарегистрирован [2018-07-28 21:41] · скачан: 85 раз
Статус: √ проверено
Размер: 23.99 GB
Как cкачать? Как скачать Грешница через торрент | qTorrent

% Раздел Тема Автор DL S | L
Зарубежные сериалы [ 9.04 GB ] Грешница / Грешники / The Sinner / Сезон: 3 / Серии: 1-8 из 8 [2020 WEB-DL 720p] MVO [TVShows] bober100 Скачать
1 | 0
Зарубежные сериалы [ 20.34 GB ] Грешница / Грешники / The Sinner / Сезон: 3 / Серии: 1-8 из 8 [2020 WEB-DL 1080p] MVO [TVShows] bober100 Скачать
1 | 0
Зарубежные сериалы [ 19.51 GB ] Грешница / Грешники / The Sinner / Сезон: 3 / Серии: 1-8 из 8 [2020 WEB-DL 1080p] MVO [Jaskier] bober100 Скачать
1 | 0
Зарубежные сериалы [ 8.22 GB ] Грешница / Грешники / The Sinner / Сезон: 3 / Серии: 1-8 из 8 [2020 WEB-DL 720p] MVO [Jaskier] bober100 Скачать
1 | 0
Зарубежные сериалы [ 4.7 GB ] Грешница / Грешники / The Sinner / Сезон: 3 / Серии: 1-8 из 8 [2020 WEB-DLRip] MVO [Jaskier] bober100 Скачать
1 | 0
Зарубежные сериалы [ 9.54 GB ] Грешница / Грешники / The Sinner / Сезон: 3 / Серии: 1-8 из 8 [2020 WEB-DL 720p] MVO [LostFilm] bober100 Скачать
1 | 0
Зарубежные сериалы [ 20.83 GB ] Грешница / Грешники / The Sinner / Сезон: 3 / Серии: 1-8 из 8 [2020 WEB-DL 1080p] MVO [LostFilm] bober100 Скачать
1 | 0

28-11-2019 20:33  

Отключить всю рекламу на сайте

    Дорогой пользователь! Огромная просьба, поблагодарите релизера, оцените раздачу и оставьте свои комментарий, если Вы скачали Грешница через торрент бесплатно! Внесите свою лепту в развитие PiratBit!
    Комментировать посты могут только пользователи прошедшие не сложную регистрацию
    Показать сообщения:    

    Грешница через торрент
    Скачать бесплатно Грешница
    Грешница скачать торрент
    Грешница смотреть онлайн
    Cкачать фильм Грешница бесплатно
    Грешница скачать торрент в хорошем качестве
    Грешница смотреть онлайн бесплатно в хорошем качестве


    Вы не можете начинать темы
    Вы не можете отвечать на сообщения
    Вы не можете редактировать свои сообщения
    Вы не можете удалять свои сообщения
    Вы не можете голосовать в опросах
    Вы не можете прикреплять файлы к сообщениям
    Вы можете скачивать файлы