Ссылка на приватное зеркало всего за 1$. Внимание количество ограничено!!!

OK

1+1

iTunes

мы

OK

1

WEB-DLRip

Джокер

Пифагор

Ведьмак / The Witcher сериал

iTunes

ПШазам

ОК

Оно 2

iTunes

30
pack

Вам бонус

ВАЖНО

!!Акция!!

Alien_RageХит недели

RePack

Resident Evil 21

ИГРА 18+

pack

RePack

jed

RePack

fifa19

RePack

Assassins Creed: Odyssey

RePack

NEED FOR SPEED™ PAYBACK

4 сезон

9 сезон

Бесстыжие 9 сезон

Все сериалы

все сериалы на PB.wtf

RePack

FAR CRY 5
  

Наш дом / Our House (Энтони Скотт Бёрнс) [2018 г., Ужасы, Триллер, Драма, WEB-DLRip, Любительский (многоголосый)("Синема УС")] pb.wtf

Наш дом через торрент pb.wtf

Размер: 1.26 GB | Добавлен: 1 год 5 мес. назад | Торрент скачан:163 раза
Скачать  

28-07-2018 21:50 Наш дом Скачать торрент  

Наш дом / Our House
Год выпуска: 2018
Страна: Канада, Германия, США
Режисер:Энтони Скотт Бёрнс
Жанр: Ужасы, Триллер, Драма
Продолжительность: 01:30:08
Перевод: Любительский (многоголосый)("Синема УС")
Субтитры: Отсутствуют

rating

В ролях: Никола Пельтц, Томас Манн, Перси Хайнс Уайт, Ксавьер де Гузман, Эллисон Хоссак, Кристин Хорн, Карлин Берчелл, Джон Ралстон, Люсиус Хойос, Марсия Беннетт

Описание: Группа молодых людей работает над созданием технологии, которая позволила бы передавать электричество без проводов. Но работа оборудования в тестовом режиме не дала никакого эффекта. В это время у Этана , главного героя фильма, в автомобильной аварии гибнут родители, и он остается с сестрой и братом одни. Продолжая изучать побочные эффекты работы созданного ими оборудования для беспроводной передачи электричества, молодой человек понимает, что они создали что-то другое. Ведь теперь в доме, он ощущает присутствие своих родителей и пытается с помощью своего изобретения, поговорить с ними. Но игра с потусторонними силами и попытка вернуть прошлую жизнь, ни к чему хорошему не приводит, а вскоре начинают происходить гораздо более страшные вещи...

Доп. информация: Присутствуют вставки голосовой и текстовой рекламы

Качество: WEB-DLRip
Формат: AVI
Видео кодек: XviD
Аудио кодек: AC3
Видео: Xvid, 720x400, ~1606 Kbps
Аудио#1: AC-3, 2 ch, 384 Kbps
скриншот   скриншот   скриншот   скриншот  

Общее
Полное имя : D:\CD\Наш дом (2018) WEB-DLRip\Наш дом (2018) WEB-DLRip-MVO.avi
Формат : AVI
Формат/Информация : Audio Video Interleave
Размер файла : 1,26 Гбайт
Продолжительность : 1 ч. 30 м.
Общий поток : 2000 Кбит/сек
Программа кодирования : VirtualDubMod 1.5.10.2 (build 2540/release)
Библиотека кодирования : VirtualDub build 35576/release

Видео
Идентификатор : 0
Формат : MPEG-4 Visual
Профиль формата : Advanced Simple@L5
Настройки формата : BVOP2 / Custom Matrix
Параметр BVOP формата : 2
Параметр QPel формата : Нет
Параметр GMC формата : Без точки перехода
Параметр матрицы формата : Выборочная
Идентификатор кодека : XVID
Идентификатор кодека/Подсказка : XviD
Продолжительность : 1 ч. 30 м.
Битрейт : 1606 Кбит/сек
Ширина : 720 пикселей
Высота : 400 пикселей
Соотношение сторон : 16:9
Частота кадров : 23,976 (24000/1001) кадра/сек
Цветовое пространство : YUV
Субдискретизация насыщенности : 4:2:0
Битовая глубина : 8 бит
Тип развёртки : Прогрессивная
Метод сжатия : С потерями
Бит/(Пиксели*Кадры) : 0.233
Размер потока : 1,01 Гбайт (80%)
Библиотека кодирования : XviD 1.2.1 (UTC 2008-12-04)

Аудио
Идентификатор : 1
Формат : AC-3
Формат/Информация : Audio Coding 3
Идентификатор кодека : 2000
Продолжительность : 1 ч. 30 м.
Вид битрейта : Постоянный
Битрейт : 384 Кбит/сек
Каналы : 2 канала
Расположение каналов : Front: L R
Частота : 48,0 КГц
Частота кадров : 31,250 кадров/сек (1536 SPF)
Битовая глубина : 16 бит
Метод сжатия : С потерями
Размер потока : 248 Мбайт (19%)
Выравнивание : Разделение по промежуткам
Продолжительность промежутка : 42 мс. (1,00 видеокадр)
Время предзагрузки промежутка : 500 мс.
ServiceKind/String : Complete Main

pb.wtf



Скачать Наш дом через торрент http://pic1.kartinco.top/images/11/m8g4m.jpg Скачать фильм Наш дом через торрент бесплантно в хорошем качестве Описание: Группа молодых людей работает над созданием технологии, которая позволила бы передавать электричество без проводов. Но работа ... 2.8 10 4
Торрент: Зарегистрирован [2018-07-28 21:50] · скачан: 163 раз
Статус: T временная
Размер: 1.26 GB
Как cкачать? Как скачать Наш дом через торрент | qTorrent

28-11-2019 20:33  

Отключить всю рекламу на сайте

    Дорогой пользователь! Огромная просьба, поблагодарите релизера, оцените раздачу и оставьте свои комментарий, если Вы скачали Наш дом через торрент бесплатно! Внесите свою лепту в развитие PiratBit!
    Комментировать посты могут только пользователи прошедшие не сложную регистрацию
    Показать сообщения:    

    Наш дом через торрент
    Скачать бесплатно Наш дом
    Наш дом скачать торрент
    Наш дом смотреть онлайн
    Cкачать фильм Наш дом бесплатно
    Наш дом скачать торрент в хорошем качестве
    Наш дом смотреть онлайн бесплатно в хорошем качестве


    Вы не можете начинать темы
    Вы не можете отвечать на сообщения
    Вы не можете редактировать свои сообщения
    Вы не можете удалять свои сообщения
    Вы не можете голосовать в опросах
    Вы не можете прикреплять файлы к сообщениям
    Вы можете скачивать файлы