Ссылка на приватное зеркало всего за 1$. Внимание количество ограничено!!!

OK

1+1

iTunes

мы

OK

1

WEB-DLRip

Джокер

Пифагор

Ведьмак / The Witcher сериал

iTunes

ПШазам

ОК

Оно 2

iTunes

30
pack

Вам бонус

ВАЖНО

!!Акция!!

Alien_RageХит недели

RePack

Resident Evil 21

ИГРА 18+

pack

RePack

jed

RePack

fifa19

RePack

Assassins Creed: Odyssey

RePack

NEED FOR SPEED™ PAYBACK

4 сезон

9 сезон

Бесстыжие 9 сезон

Все сериалы

все сериалы на PB.wtf

RePack

FAR CRY 5
  

Реквием / Requiem (Пол Мур) [2018 г., Ужасы, Триллер, WEB-DLRip, Профессиональный многоголосый (официальный звук)] pb.wtf

Реквием через торрент pb.wtf

Раздают: 1 [ 0 KB/s ]
Размер: 1.26 GB | Добавлен: 1 год 6 мес. назад | Торрент скачан:136 раз
Скачать  

28-07-2018 22:04 Реквием Скачать торрент  

Реквием / Requiem
Год выпуска: 2018
Страна: США / Stormcatcher Films
Жанр: Ужасы, Триллер
Продолжительность: 01:42:30
Перевод: Профессиональный многоголосый (официальный звук)
Субтитры: Отсутствуют

Режиссер: Пол Мур

rating

В ролях: Тони Тодд, Джефф Фэйи, Санни Ла Роуз, Джефф Шмидт, Кортни Хоган, Роберт Пралго, Даниэль Харрис

Описание: Когда Грэйс предлагают временно переехать в маленькую церквушку, чтобы расчистить настенную фреску, она сразу же соглашается, ведь ей так нужны деньги. Вскоре она узнает, что церковь и ее главная реликвия хранят ужасающие тайны мстительных призраков.

Доп. информация: Присутствуют вставки голосовой и текстовой рекламы

Качество: WEB-DLRip
Формат: AVI
Видео кодек: XviD
Аудио кодек: AC3
Видео: Xvid, 720x304, ~1560 Kbps
Аудио#1: AC3, 2 ch, 192 Kbps
скриншот   скриншот   скриншот   скриншот  

Общее
Полное имя : D:\CD\Реквием (2018) WEBRip\Реквием (2018) WEB-DLRip-MVO.avi
Формат : AVI
Формат/Информация : Audio Video Interleave
Размер файла : 1,26 Гбайт
Продолжительность : 1 ч. 42 м.
Общий поток : 1762 Кбит/сек
Программа кодирования : VirtualDubMod 1.5.10.2 (build 2540/release)
Библиотека кодирования : VirtualDub build 35576/release

Видео
Идентификатор : 0
Формат : MPEG-4 Visual
Профиль формата : Advanced Simple@L5
Настройки формата : BVOP2 / Custom Matrix
Параметр BVOP формата : 2
Параметр QPel формата : Нет
Параметр GMC формата : Без точки перехода
Параметр матрицы формата : Выборочная
Идентификатор кодека : XVID
Идентификатор кодека/Подсказка : XviD
Продолжительность : 1 ч. 42 м.
Битрейт : 1560 Кбит/сек
Ширина : 720 пикселей
Высота : 304 пикселя
Соотношение сторон : 2,35:1
Частота кадров : 23,976 (24000/1001) кадра/сек
Цветовое пространство : YUV
Субдискретизация насыщенности : 4:2:0
Битовая глубина : 8 бит
Тип развёртки : Прогрессивная
Метод сжатия : С потерями
Бит/(Пиксели*Кадры) : 0.297
Размер потока : 1,12 Гбайт (89%)
Библиотека кодирования : XviD 1.2.1 (UTC 2008-12-04)

Аудио
Идентификатор : 1
Формат : AC-3
Формат/Информация : Audio Coding 3
Идентификатор кодека : 2000
Продолжительность : 1 ч. 42 м.
Вид битрейта : Постоянный
Битрейт : 192 Кбит/сек
Каналы : 2 канала
Расположение каналов : Front: L R
Частота : 48,0 КГц
Частота кадров : 31,250 кадров/сек (1536 SPF)
Битовая глубина : 16 бит
Метод сжатия : С потерями
Размер потока : 141 Мбайт (11%)
Выравнивание : Разделение по промежуткам
Продолжительность промежутка : 42 мс. (1,00 видеокадр)
Время предзагрузки промежутка : 500 мс.
ServiceKind/String : Complete Main

pb.wtf



Скачать Реквием через торрент http://pic1.kartinco.top/images/11/rfzro.jpg Скачать фильм Реквием через торрент бесплантно в хорошем качестве Описание: Когда Грэйс предлагают временно переехать в маленькую церквушку, чтобы расчистить настенную фреску, она сразу же соглашается, ... 4.4 10 5
Торрент: Зарегистрирован [2018-07-28 22:04] · скачан: 136 раз
Статус: T временная
Размер: 1.26 GB
Как cкачать? Как скачать Реквием через торрент | qTorrent

% Раздел Тема Автор DL S | L
Фильмы до 2000 г. [ 4.25 GB ] Реквием по мечте / Requiem for a dream [2000 BDRip-AVC] [Режиссерская версия] DUB+MVO +AVO+VO bober100 Скачать
1 | 0
T Фильмы (мультфильмы) cо спонсором показа (Новинки AVI/MKV) [ 3.25 GB ] Реквием по бойцу / Requiem for a Fighter [2018 WEB-DL 720p] MVO ["Синема УС"] bober100 Скачать
1 | 0
T Фильмы (мультфильмы) cо спонсором показа (Новинки AVI/MKV) [ 1.37 GB ] Реквием по бойцу / Requiem for a Fighter [2018 WEB-DLRip] MVO ["Синема УС"] bober100 Скачать
1 | 0
Мультфильмы / Cartoons [ 1.33 GB ] Фильм Реквием 1 / The Movie Requiem 1 [2011 Adult Animation Big Boobs All Sex SiteRip Оригинальный] DJASFUL Скачать
1 | 0
Зарубежные сериалы [ 10.28 GB ] Реквием / Requiem / Сезон: 1 / Серии: 1-6 из 6 [2018 WEBRip 720p] MVO [Jaskier] bober100 Скачать
1 | 0
Зарубежные сериалы [ 4.34 GB ] Реквием / Requiem / Сезон: 1 / Серии: 1-6 из 6 [2018 WEBRip] MVO [Jaskier] bober100 Скачать
1 | 0
Зарубежные сериалы [ 4.1 GB ] Реквием / Requiem / Сезон: 1 / Серии: 1-6 из 6 [2018 WEB-DLRip] MVO [NewStudio] bober100 Скачать
1 | 0

28-11-2019 20:33  

Отключить всю рекламу на сайте

    Дорогой пользователь! Огромная просьба, поблагодарите релизера, оцените раздачу и оставьте свои комментарий, если Вы скачали Реквием через торрент бесплатно! Внесите свою лепту в развитие PiratBit!
    Комментировать посты могут только пользователи прошедшие не сложную регистрацию
    Показать сообщения:    

    Реквием через торрент
    Скачать бесплатно Реквием
    Реквием скачать торрент
    Реквием смотреть онлайн
    Cкачать фильм Реквием бесплатно
    Реквием скачать торрент в хорошем качестве
    Реквием смотреть онлайн бесплатно в хорошем качестве


    Вы не можете начинать темы
    Вы не можете отвечать на сообщения
    Вы не можете редактировать свои сообщения
    Вы не можете удалять свои сообщения
    Вы не можете голосовать в опросах
    Вы не можете прикреплять файлы к сообщениям
    Вы можете скачивать файлы