Ссылка на приватное зеркало нашего сайта всего за 1$. Внимание количество ограничено!!!

2 сезон

iTunes

1 сезон

1

iTunes

iTunes

iTunes

1 сезон

RePack

30

ИГРА 18+

pack

ВАЖНО

!!Акция!!

Alien_RageХит недели

RePack

MK11
pack

Забери бонус

RePack

jed

!!Акция!!

Alien_Rage

RePack

fifa19

RePack

Assassins Creed: Odyssey

RePack

NEED FOR SPEED™ PAYBACK

4 сезон

9 сезон

Бесстыжие 9 сезон

Все сериалы

все сериалы на PB.wtf

RePack

FAR CRY 5
  

Не в себе / Unsane (Стивен Содерберг) [2018, ужасы, триллер, UHD BDRemux 2160p] [HDR] MVO [HDRezka Studio] +DUB (rus, ukr) [Лицензия] pb.wtf

Не в себе через торрент pb.wtf

Размер: 53.08 GB | Добавлен: 2 года 2 мес. назад | Торрент скачан:35 раз
Скачать  

29-07-2018 15:55 Не в себе Скачать торрент  

Не в себе / Unsane
Год выпуска: 2018
Страна: США
Жанр: ужасы, триллер
Продолжительность: 01:38:12
Перевод:

#1. Дублированный | Лицензия
#2. Профессиональный многоголосый | HDRezka Studio

Субтитры: Русские (полные, форсированные), украинские (полные, форсированные), английские

Режиссер: Стивен Содерберг

rating

В ролях:

Клер Фой (Sawyer Valentini), Джошуа Леонард (David Strine), Джей Фэро (Nate Hoffman), Джуно Темпл (Violet), Эми Ирвинг (Angela Valentini), Эйми Маллинз (Ashley Brighterhouse), Сара Стайлс (Jill), Зак Черри (Dennis), Марк Кадиш (Bank Manager), Колин Вуделл (Mark), Мира Лукреция Тейлор (Counselor), Линда Моз (Dolores)
Описание:

Девушка покидает родной город, чтобы сбежать от проблемного прошлого и найти новую работу. Но когда она не по своей воле оказывается в психиатрическом учреждении, ей приходится столкнуться со своим самым большим страхом. Но реален ли он, или это - просто плод ее воображения? Героине кажется, что никто не верит ей, а власти не могут или не хотят помочь, поэтому она должна в одиночку противостоять своим страхам.

Качество: UHD BDRemux 2160p | HDR
Формат: MKV

Видео: HEVC, 3840x2160 (16:9), 23.976 fps, 72.7 Mb/s (0.365 bit/pixel)
Аудио#1: DTS, 48.0 kHz, 6 ch, 768 kb/s, CBR (Russian) | Дублированный | Лицензия
Аудио#2: AC-3, 48.0 kHz, 6 ch, 448 kb/s, CBR (Ukrainian) | Дублированный | Лицензия
Аудио#3: AC-3, 48.0 kHz, 2 ch, 384 kb/s, CBR (Russian) |Профессиональный многоголосый | HDRezka Studio
Аудио#4: DTS MA / Core, 48.0 kHz, 6 ch, 3 072 kb/s / 1 509 kb/s, VBR / CBR (English)
скриншот  скриншот  скриншот  скриншот  скриншот  

Общее
Уникальный идентификатор : 154181303785708141238897135660298718028 (0x73FE3D2DF5F6814BEA52770AE488CB4C)
Полное имя : Unsane.2018.UHD.BDRemux.2160p.HEVC.HDR.IVA(RUS.UKR.ENG).ExKinoRay.mkv
Формат : Matroska
Версия формата : Version 4 / Version 2
Размер файла : 53,1 Гбайт
Продолжительность : 1 ч. 38 м.
Общий поток : 77,4 Мбит/сек
Название фильма : Не в себе / Unsane ( 2018 ) UHD BDRemux | HDR, 4K | IVA(RUS.UKR.ENG) | ExKinoRay
Дата кодирования : UTC 2018-07-29 12:58:13
Программа кодирования : mkvmerge v25.0.0 ('Prog Noir') 64-bit
Библиотека кодирования : libebml v1.3.6 + libmatroska v1.4.9
Обложка : Yes
Attachments : cover

Видео
Идентификатор : 1
Формат : HEVC
Формат/Информация : High Efficiency Video Coding
Коммерческое название : HDR10
Профиль формата : Main 10@L5.1@High
Идентификатор кодека : V_MPEGH/ISO/HEVC
Продолжительность : 1 ч. 38 м.
Битрейт : 72,7 Мбит/сек
Ширина : 3840 пикселей
Высота : 2160 пикселей
Соотношение сторон : 16:9
Режим частоты кадров : Постоянный
Частота кадров : 23,976 (24000/1001) кадра/сек
Цветовое пространство : YUV
Субдискретизация насыщенности : 4:2:0 (Type 2)
Битовая глубина : 10 бит
Бит/(Пиксели*Кадры) : 0.365
Размер потока : 49,8 Гбайт (94%)
Библиотека кодирования : ATEME Titan File 3.8.16 (4.8.16.0)
Язык : English
Default : Да
Forced : Нет
Цветовой диапазон : Limited
Основные цвета : BT.2020
Характеристики трансфера : PQ
Коэффициенты матрицы : BT.2020 non-constant
MasteringDisplay_ColorPrimaries : Display P3
MasteringDisplay_Luminance : min: 0.0050 cd/m2, max: 1000 cd/m2
MaxCLL : 666 cd/m2
MaxFALL : 157 cd/m2

Аудио #1
Идентификатор : 2
Формат : DTS
Формат/Информация : Digital Theater Systems
Идентификатор кодека : A_DTS
Продолжительность : 1 ч. 38 м.
Вид битрейта : Постоянный
Битрейт : 768 Кбит/сек
Каналы : 6 каналов
Расположение каналов : Front: L C R, Side: L R, LFE
Частота : 48,0 КГц
Частота кадров : 93,750 кадра/сек (512 SPF)
Битовая глубина : 24 бит
Метод сжатия : С потерями
Размер потока : 539 Мбайт (1%)
Заголовок : | Дублированый |
Язык : Russian
Default : Да
Forced : Нет

Аудио #2
Идентификатор : 3
Формат : AC-3
Формат/Информация : Audio Coding 3
Идентификатор кодека : A_AC3
Продолжительность : 1 ч. 38 м.
Вид битрейта : Постоянный
Битрейт : 448 Кбит/сек
Каналы : 6 каналов
Расположение каналов : Front: L C R, Side: L R, LFE
Частота : 48,0 КГц
Частота кадров : 31,250 кадров/сек (1536 SPF)
Битовая глубина : 16 бит
Метод сжатия : С потерями
Размер потока : 315 Мбайт (1%)
Заголовок : | Дублированый |
Язык : Ukrainian
ServiceKind/String : Complete Main
Default : Нет
Forced : Нет

Аудио #3
Идентификатор : 4
Формат : AC-3
Формат/Информация : Audio Coding 3
Идентификатор кодека : A_AC3
Продолжительность : 1 ч. 38 м.
Вид битрейта : Постоянный
Битрейт : 384 Кбит/сек
Каналы : 2 канала
Расположение каналов : Front: L R
Частота : 48,0 КГц
Частота кадров : 31,250 кадров/сек (1536 SPF)
Битовая глубина : 16 бит
Метод сжатия : С потерями
Размер потока : 270 Мбайт (0%)
Заголовок : | MVO, HDrezka Studio |
Язык : Russian
ServiceKind/String : Complete Main
Default : Нет
Forced : Нет

Аудио #4
Идентификатор : 5
Формат : DTS
Формат/Информация : Digital Theater Systems
Профиль формата : MA / Core
Идентификатор кодека : A_DTS
Продолжительность : 1 ч. 38 м.
Вид битрейта : Переменный / Постоянный
Битрейт : 3072 Кбит/сек / 1509 Кбит/сек
Каналы : 6 каналов
Расположение каналов : Front: L C R, Side: L R, LFE
Частота : 48,0 КГц
Частота кадров : 93,750 кадра/сек (512 SPF)
Битовая глубина : 24 бит
Метод сжатия : Без потерь / Lossy
Размер потока : 2,14 Гбайт (4%)
Заголовок : | Original |
Язык : English
Default : Нет
Forced : Нет

Текст #1
Идентификатор : 6
Формат : UTF-8
Идентификатор кодека : S_TEXT/UTF8
Идентификатор кодека/Информация : UTF-8 Plain Text
Продолжительность : 1 ч. 33 м.
Битрейт : 0 бит/сек
ElementCount : 4
Размер потока : 190 байт (0%)
Заголовок : Forced
Язык : Russian
Default : Да
Forced : Да

Текст #2
Идентификатор : 7
Формат : UTF-8
Идентификатор кодека : S_TEXT/UTF8
Идентификатор кодека/Информация : UTF-8 Plain Text
Продолжительность : 1 ч. 35 м.
Битрейт : 97 бит/сек
ElementCount : 1312
Размер потока : 68,5 Кбайт (0%)
Заголовок : full
Язык : Russian
Default : Нет
Forced : Нет

Текст #3
Идентификатор : 8
Формат : UTF-8
Идентификатор кодека : S_TEXT/UTF8
Идентификатор кодека/Информация : UTF-8 Plain Text
Продолжительность : 1 ч. 33 м.
Битрейт : 0 бит/сек
ElementCount : 4
Размер потока : 188 байт (0%)
Заголовок : Forced
Язык : Ukrainian
Default : Нет
Forced : Да

Текст #4
Идентификатор : 9
Формат : UTF-8
Идентификатор кодека : S_TEXT/UTF8
Идентификатор кодека/Информация : UTF-8 Plain Text
Продолжительность : 1 ч. 36 м.
Битрейт : 89 бит/сек
ElementCount : 1221
Размер потока : 63,3 Кбайт (0%)
Заголовок : Full
Язык : Ukrainian
Default : Нет
Forced : Нет

Текст #5
Идентификатор : 10
Формат : UTF-8
Идентификатор кодека : S_TEXT/UTF8
Идентификатор кодека/Информация : UTF-8 Plain Text
Продолжительность : 1 ч. 36 м.
Битрейт : 65 бит/сек
ElementCount : 1383
Размер потока : 46,3 Кбайт (0%)
Заголовок : full
Язык : English
Default : Нет
Forced : Нет

Меню
00:00:00.000 : en:Chapter 1
00:05:40.256 : en:Chapter 2
00:10:21.912 : en:Chapter 3
00:14:24.697 : en:Chapter 4
00:19:26.331 : en:Chapter 5
00:24:46.234 : en:Chapter 6
00:29:10.165 : en:Chapter 7
00:36:35.401 : en:Chapter 8
00:40:25.089 : en:Chapter 9
00:45:23.595 : en:Chapter 10
00:50:14.803 : en:Chapter 11
00:56:12.285 : en:Chapter 12
00:59:06.834 : en:Chapter 13
01:04:44.463 : en:Chapter 14
01:07:30.046 : en:Chapter 15
01:15:37.449 : en:Chapter 16
01:23:25.333 : en:Chapter 17
01:26:39.652 : en:Chapter 18
01:30:23.167 : en:Chapter 19
01:35:08.411 : en:Chapter 20

pb.wtf



Скачать Не в себе через торрент https://c.radikal.ru/c22/1806/1b/8a4ab7572aff.jpg Скачать фильм Не в себе через торрент бесплантно в хорошем качестве Описание: Девушка покидает родной город, чтобы сбежать от проблемного прошлого и найти новую работу. Но когда она не по своей воле ... 7 10 3
Info! Золотая раздача, скачанное не засчитывается.
Торрент: Зарегистрирован [2018-07-29 15:56] · скачан: 35 раз
Статус: √ проверено
Размер: 53.08 GB
Как cкачать? Как скачать Не в себе через торрент | qTorrent

% Раздел Тема Автор DL S | L
Фильмы [HD 720p, 1080p] (Хороший звук DUB, MVO) [ 13.16 GB ] Не в себе / Unsane [2018 BDRip 1080p] MVO [HDRezka Studio] +DUB [] bober100 Скачать
1 | 0
Фильмы [HD 720p, 1080p] (Хороший звук DUB, MVO) [ 8.21 GB ] Не в себе / Unsane [2018 BDRip 720p] MVO [HDRezka Studio] +DUB [] bober100 Скачать
1 | 0
Фильмы (Blu-ray, BD-Remux, HDDVD) [ 31.68 GB ] Не в себе / Unsane [2018 Blu-Ray EUR 1080p] sheker187 Скачать
1 | 0
Фильмы 2018 [DVDrip, WEB-DLRip, HDrip] (DUB, MVO) [ 1.46 GB ] Не в себе / Unsane [2018 BDRip] - [] Twi7ter Скачать
2 | 0
Фильмы 2018 [DVDrip, WEB-DLRip, HDrip] (DUB, MVO) [ 2.45 GB ] Не в себе / Unsane [2018 BDRip-AVC] MVO [HDRezka Studio] +DUB [] bober100 Скачать
1 | 0
Фильмы 2018 [DVDrip, WEB-DLRip, HDrip] (DUB, MVO) [ 1.46 GB ] Не в себе / Unsane [2018 BDRip] DUB [ BD EUR] bober100 Скачать
1 | 0
Фильмы (Blu-ray, BD-Remux, HDDVD) [ 24.07 GB ] Не в себе / Unsane [2018 BD Remux 1080p] bober100 Скачать
1 | 0

28-11-2019 20:33  

Отключить всю рекламу на сайте

    Дорогой пользователь! Огромная просьба, поблагодарите релизера, оцените раздачу и оставьте свои комментарий, если Вы скачали Не в себе через торрент бесплатно! Внесите свою лепту в развитие PiratBit!
    Комментировать посты могут только пользователи прошедшие не сложную регистрацию
    Показать сообщения:    

    Не в себе через торрент
    Скачать бесплатно Не в себе
    Не в себе скачать торрент
    Не в себе смотреть онлайн
    Cкачать фильм Не в себе бесплатно
    Не в себе скачать торрент в хорошем качестве
    Не в себе смотреть онлайн бесплатно в хорошем качестве


    Вы не можете начинать темы
    Вы не можете отвечать на сообщения
    Вы не можете редактировать свои сообщения
    Вы не можете удалять свои сообщения
    Вы не можете голосовать в опросах
    Вы не можете прикреплять файлы к сообщениям
    Вы можете скачивать файлы