Ссылка на приватное зеркало нашего сайта всего за 1$. Внимание количество ограничено!!!

2 сезон

iTunes

1 сезон

1

iTunes

iTunes

iTunes

1 сезон

RePack

30

ИГРА 18+

pack

ВАЖНО

!!Акция!!

Alien_RageХит недели

RePack

MK11
pack

Забери бонус

RePack

jed

!!Акция!!

Alien_Rage

RePack

fifa19

RePack

Assassins Creed: Odyssey

RePack

NEED FOR SPEED™ PAYBACK

4 сезон

9 сезон

Бесстыжие 9 сезон

Все сериалы

все сериалы на PB.wtf

RePack

FAR CRY 5
  

Взлетная полоса / The Runway (Йен Пауэр) [2010, Комедия, драма, BDRip-AVC от _denis_100 | NNNB] MVO + AVO + Original + Sub (Rus) pb.wtf

Взлетная полоса через торрент pb.wtf

Размер: 2.18 GB | Добавлен: 2 года 2 мес. назад | Торрент скачан:12 раз
Скачать  

29-07-2018 16:33 Взлетная полоса Скачать торрент  

Взлетная полоса / The Runway
Фильм снят по мотивам реальных событий.



Год выпуска: 2010
Жанр: Комедия, драма
Выпущено: Ирландия, Люксембург
Продолжительность: 01:32:55
Перевод: Любительский многоголосый , Авторский одноголосый
Субтитры: русские
Режиссер: Йен Пауэр
В ролях: Демиан Бишир, Керри Кондон, Джеймс Космо, Джейм Киранс, Джон Карпентер, Доннча Краули, Пэт Лаффан, Бруно Бичир, Марк Доэрти, Джон Кэвэна
Описание:
Колумбийский самолет терпит крушение в ирландской сельской местности как раз в тот момент, когда мальчик Пако ожидает приземления космического корабля, который он вызвал с помощью своего межгалактического радиоприемника, собственноручно сконструированного вместе с другом.Пако по счастливой случайности знает зачатки испанского и, единственный во всей деревне, может общаться с пилотом упавшего самолета Эрнесто. Естественно, что он становится переводчиком. Правда, по большей части он либо совсем не понимает, либо намеренно искажает в своих целях то, что говорит свалившийся с неба испанский мужчина.

Качество: BDRip-AVC
Контейнер (Расширение): MKV
Видео: 1024x436, 2015 Кбит/сек, 23,976 кадр/сек, 0,188 Бит/[Пиксели*Кадры]
Аудио №1: русский / AC3 / 2.0 / 48 kHz / 448 kbps / |Любительский многоголосый, STEPonee|
Аудио №2: русский / AC3 / 5.1 / 48 kHz / 448 kbps / |Авторский одноголосый, А.Алексеев|
Аудио №3: английский / AC3 / 5.1 / 48 kHz / 448 kbps /
Навигация по главам (Чаптеры): естьАвтор рипа: Группа:
Format : Matroska
Format version : Version 2
File size : 2.18 GiB
Duration : 1 h 33 min
Overall bit rate : 3 349 kb/s
Movie name : The Runway.(2010).BDRip-AVC.[denis100]
Encoded date : UTC 2018-07-29 16:02:08
Writing application : mkvmerge v5.8.0 ('No Sleep / Pillow') built on Sep 2 2012 15:37:04
Writing library : libebml v1.2.3 + libmatroska v1.3.0

Video
ID : 1
Format : AVC
Format/Info : Advanced Video Codec
Format profile : High@L4.1
Format settings : CABAC / 11 Ref Frames
Format settings, CABAC : Yes
Format settings, ReFrames : 11 frames
Codec ID : V_MPEG4/ISO/AVC
Duration : 1 h 33 min
Bit rate : 2 015 kb/s
Width : 1 024 pixels
Height : 436 pixels
Display aspect ratio : 2.35:1
Frame rate mode : Constant
Frame rate : 23.976 (24000/1001) FPS
Color space : YUV
Chroma subsampling : 4:2:0
Bit depth : 8 bits
Scan type : Progressive
Bits/(Pixel*Frame) : 0.188
Stream size : 1.26 GiB (58%)
Title : The Runway.(2010).BDRip-AVC.[denis100]
Writing library : x264 core 155 r2901 7d0ff22
Encoding settings : cabac=1 / ref=11 / deblock=1:-3:-3 / analyse=0x3:0x113 / me=umh / subme=11 / psy=1 / psy_rd=1.00:0.05 / mixed_ref=1 / me_range=32 / chroma_me=1 / trellis=2 / 8x8dct=1 / cqm=0 / deadzone=21,11 / fast_pskip=0 / chroma_qp_offset=-3 / threads=6 / lookahead_threads=1 / sliced_threads=0 / nr=0 / decimate=1 / interlaced=0 / bluray_compat=0 / constrained_intra=0 / bframes=12 / b_pyramid=2 / b_adapt=2 / b_bias=0 / direct=3 / weightb=0 / open_gop=0 / weightp=2 / keyint=240 / keyint_min=23 / scenecut=40 / intra_refresh=0 / rc=2pass / mbtree=0 / bitrate=2015 / ratetol=1.0 / qcomp=0.60 / qpmin=0 / qpmax=69 / qpstep=4 / cplxblur=20.0 / qblur=0.5 / ip_ratio=1.40 / pb_ratio=1.30 / aq=1:0.90
Language : English
Default : Yes
Forced : No

Audio #1
ID : 2
Format : AC-3
Format/Info : Audio Coding 3
Codec ID : A_AC3
Duration : 1 h 33 min
Bit rate mode : Constant
Bit rate : 448 kb/s
Channel(s) : 2 channels
Channel positions : Front: L R
Sampling rate : 48.0 kHz
Frame rate : 31.250 FPS (1536 SPF)
Bit depth : 16 bits
Compression mode : Lossy
Stream size : 298 MiB (13%)
Title : MVO, STEPonee
Language : Russian
Service kind : Complete Main
Default : Yes
Forced : No

Audio #2
ID : 3
Format : AC-3
Format/Info : Audio Coding 3
Codec ID : A_AC3
Duration : 1 h 33 min
Bit rate mode : Constant
Bit rate : 448 kb/s
Channel(s) : 6 channels
Channel positions : Front: L C R, Side: L R, LFE
Sampling rate : 48.0 kHz
Frame rate : 31.250 FPS (1536 SPF)
Bit depth : 16 bits
Compression mode : Lossy
Stream size : 298 MiB (13%)
Title : AVO, А. Алексеев
Language : Russian
Service kind : Complete Main
Default : No
Forced : No

Audio #3
ID : 4
Format : AC-3
Format/Info : Audio Coding 3
Codec ID : A_AC3
Duration : 1 h 33 min
Bit rate mode : Constant
Bit rate : 448 kb/s
Channel(s) : 6 channels
Channel positions : Front: L C R, Side: L R, LFE
Sampling rate : 48.0 kHz
Frame rate : 31.250 FPS (1536 SPF)
Bit depth : 16 bits
Compression mode : Lossy
Stream size : 298 MiB (13%)
Language : English
Service kind : Complete Main
Default : No
Forced : No

Text
ID : 5
Format : UTF-8
Codec ID : S_TEXT/UTF8
Codec ID/Info : UTF-8 Plain Text
Language : Russian
Default : No
Forced : No

Menu
00:00:00.000 : en:00:00:00.000
00:09:22.850 : en:00:09:22.850
00:19:41.054 : en:00:19:41.054
00:30:09.932 : en:00:30:09.932
00:39:40.710 : en:00:39:40.710
00:50:15.219 : en:00:50:15.219
01:00:59.989 : en:01:00:59.989
01:15:37.363 : en:01:15:37.363
01:28:58.622 : en:01:28:58.622
скриншот   скриншот   скриншот  
pb.wtf



Скачать Взлетная полоса через торрент http://i4.imageban.ru/out/2018/07/29/2210d72b8473ba00c3eeee9b2ac0fd6c.png Скачать фильм Взлетная полоса через торрент бесплантно в хорошем качестве Описание:Колумбийский самолет терпит крушение в ирландской сельской местности как раз в тот момент, когда мальчик Пако ожидает приземления ... 4 10 1
Info! Золотая раздача, скачанное не засчитывается.
Торрент: Зарегистрирован [2018-07-29 16:33] · скачан: 12 раз
Статус: √ проверено
Размер: 2.18 GB
Как cкачать? Как скачать Взлетная полоса через торрент | qTorrent

28-11-2019 20:33  

Отключить всю рекламу на сайте

    Дорогой пользователь! Огромная просьба, поблагодарите релизера, оцените раздачу и оставьте свои комментарий, если Вы скачали Взлетная полоса через торрент бесплатно! Внесите свою лепту в развитие PiratBit!
    Комментировать посты могут только пользователи прошедшие не сложную регистрацию
    Показать сообщения:    

    Взлетная полоса через торрент
    Скачать бесплатно Взлетная полоса
    Взлетная полоса скачать торрент
    Взлетная полоса смотреть онлайн
    Cкачать фильм Взлетная полоса бесплатно
    Взлетная полоса скачать торрент в хорошем качестве
    Взлетная полоса смотреть онлайн бесплатно в хорошем качестве


    Вы не можете начинать темы
    Вы не можете отвечать на сообщения
    Вы не можете редактировать свои сообщения
    Вы не можете удалять свои сообщения
    Вы не можете голосовать в опросах
    Вы не можете прикреплять файлы к сообщениям
    Вы можете скачивать файлы