Ссылка на приватное зеркало всего за 1$. Внимание количество ограничено!!!

OK

1+1

iTunes

мы

OK

1

WEB-DLRip

Джокер

Пифагор

Ведьмак / The Witcher сериал

Лицензия

ПШазам

ОК

Оно 2

iTunes

30
pack

Вам бонус

ВАЖНО

!!Акция!!

Alien_RageХит недели

RePack

Resident Evil 21

ИГРА 18+

pack

RePack

jed

RePack

fifa19

RePack

Assassins Creed: Odyssey

RePack

NEED FOR SPEED™ PAYBACK

4 сезон

9 сезон

Бесстыжие 9 сезон

Все сериалы

все сериалы на PB.wtf

RePack

FAR CRY 5
  

Не в себе / Unsane (Стивен Содерберг) [2018, ужасы, триллер, Blu-Ray EUR 1080p] Дубляж pb.wtf

Не в себе через торрент pb.wtf

Размер: 31.68 GB | Добавлен: 1 год 5 мес. назад | Торрент скачан:15 раз
Скачать  

29-07-2018 17:44 Не в себе Скачать торрент  

Не в себе / Unsane«Она или не она?»
Год выпуска: 2018
Страна: США
Жанр: ужасы, триллер
Продолжительность: 01:38:12
Перевод: Дублированный
Субтитры: Русские, английские, украинские, французские, датские, нидерландские, финские, немецкие, итальянские, японские, норвежские, шведские, арабские, эстонские, латышские, литовские
Режиссер: Стивен Содерберг
В ролях:

Клер Фой (Sawyer Valentini), Джошуа Леонард (David Strine), Джей Фэро (Nate Hoffman), Джуно Темпл (Violet), Эми Ирвинг (Angela Valentini), Эйми Маллинз (Ashley Brighterhouse), Сара Стайлс (Jill), Зак Черри (Dennis), Марк Кадиш (Bank Manager), Колин Вуделл (Mark), Мира Лукреция Тейлор (Counselor), Линда Моз (Dolores)
Описание:
Девушка покидает родной город, чтобы сбежать от проблемного прошлого и найти новую работу. Но когда она не по своей воле оказывается в психиатрическом учреждении, ей приходится столкнуться со своим самым большим страхом. Но реален ли он, или это - просто плод ее воображения? Героине кажется, что никто не верит ей, а власти не могут или не хотят помочь, поэтому она должна в одиночку противостоять своим страхам.
Рейтинг:

MPAA: R - Лицам до 17 лет обязательно присутствие взрослого
Качество: Blu-Ray EUR 1080p
Контейнер: BDMV
Видео: MPEG-4 AVC, 31959 Кбит/с, 1920x1080, 23.976 кадр/с
Аудио: DTS-HD Master Audio English 3089 kbps 5.1 / 48 kHz / 3089 kbps / 24-bit (DTS Core: 5.1 / 48 kHz / 1509 kbps / 24-bit)
Аудио: Dolby Digital Audio English 448 kbps 5.1 / 48 kHz / 448 kbps
Аудио: DTS Audio French 768 kbps 5.1 / 48 kHz / 768 kbps / 24-bit
Аудио: DTS Audio German 768 kbps 5.1 / 48 kHz / 768 kbps / 24-bit
Аудио: DTS Audio Italian 768 kbps 5.1 / 48 kHz / 768 kbps / 24-bit
Аудио: DTS Audio Japanese 1509 kbps 5.1 / 48 kHz / 1509 kbps / 24-bit
Аудио: DTS Audio Russian 768 kbps 5.1 / 48 kHz / 768 kbps / 24-bit
Аудио: Dolby Digital Audio Ukrainian 448 kbps 5.1 / 48 kHz / 448 kbps
Disc Title: UNSANE_2018_EUR_BLUEBIRD
Disc Size: 34 020 005 184 bytes
Protection: AACS
BD-Java: Yes
BDInfo: 0.5.8

Notes:

BDINFO HOME:
Cinema Squid
http://www.cinemasquid.com/blu-ray/tools/bdinfo

INCLUDES FORUMS REPORT FOR:
AVS Forum Blu-ray Audio and Video Specifications Thread
http://www.avsforum.com/avs-vb/showthread.php?t=1155731

********************
PLAYLIST: 00800.MPLS
********************

<--- BEGIN FORUMS PASTE --->

Total Video
Title Codec Length Movie Size Disc Size Bitrate Bitrate Main Audio Track Secondary Audio Track
----- ------ ------- -------------- -------------- ------- ------- ------------------ ---------------------
00800.MPLS AVC 1:37:48 32 271 323 136 34 020 005 184 43,99 31,96 DTS-HD Master 5.1 3089Kbps (48kHz/24-bit) DD AC3 5.1 448Kbps

DISC INFO:

Disc Title: UNSANE_2018_EUR_BLUEBIRD
Disc Size: 34 020 005 184 bytes
Protection: AACS
BD-Java: Yes
BDInfo: 0.5.8

PLAYLIST REPORT:

Name: 00800.MPLS
Length: 1:37:48.904 (h:m:s.ms)
Size: 32 271 323 136 bytes
Total Bitrate: 43,99 Mbps

(*) Indicates included stream hidden by this playlist.

VIDEO:

Codec Bitrate Description
----- ------- -----------
MPEG-4 AVC Video 31959 kbps 1080p / 23,976 fps / 16:9 / High Profile 4.1

AUDIO:

Codec Language Bitrate Description
----- -------- ------- -----------
DTS-HD Master Audio English 3089 kbps 5.1 / 48 kHz / 3089 kbps / 24-bit (DTS Core: 5.1 / 48 kHz / 1509 kbps / 24-bit)
Dolby Digital Audio English 448 kbps 5.1 / 48 kHz / 448 kbps
DTS Audio French 768 kbps 5.1 / 48 kHz / 768 kbps / 24-bit
DTS Audio German 768 kbps 5.1 / 48 kHz / 768 kbps / 24-bit
DTS Audio Italian 768 kbps 5.1 / 48 kHz / 768 kbps / 24-bit
* DTS Audio Japanese 1509 kbps 5.1 / 48 kHz / 1509 kbps / 24-bit
DTS Audio Russian 768 kbps 5.1 / 48 kHz / 768 kbps / 24-bit
Dolby Digital Audio Ukrainian 448 kbps 5.1 / 48 kHz / 448 kbps

SUBTITLES:

Codec Language Bitrate Description
----- -------- ------- -----------
Presentation Graphics English 71,138 kbps
Presentation Graphics French 56,319 kbps
Presentation Graphics Danish 55,014 kbps
Presentation Graphics Dutch 52,372 kbps
Presentation Graphics Finnish 55,686 kbps
Presentation Graphics German 65,737 kbps
Presentation Graphics Italian 57,573 kbps
* Presentation Graphics Japanese 22,912 kbps
Presentation Graphics Norwegian 54,607 kbps
Presentation Graphics Russian 58,297 kbps
Presentation Graphics Swedish 56,867 kbps
Presentation Graphics Arabic 36,801 kbps
Presentation Graphics Estonian 54,993 kbps
Presentation Graphics Latvian 58,816 kbps
Presentation Graphics Lithuanian 55,985 kbps
Presentation Graphics Ukrainian 55,824 kbps
* Presentation Graphics Japanese 0,267 kbps

FILES:

Name Time In Length Size Total Bitrate
---- ------- ------ ---- -------------
02802.M2TS 0:00:00.000 1:37:48.904 32 271 323 136 43 990

CHAPTERS:

Number Time In Length Avg Video Rate Max 1-Sec Rate Max 1-Sec Time Max 5-Sec Rate Max 5-Sec Time Max 10Sec Rate Max 10Sec Time Avg Frame Size Max Frame Size Max Frame Time
------ ------- ------ -------------- -------------- -------------- -------------- -------------- -------------- -------------- -------------- -------------- --------------
1 0:00:00.000 0:05:17.191 32 319 kbps 41 518 kbps 00:00:21.771 36 139 kbps 00:00:17.767 35 472 kbps 00:00:12.637 168 474 bytes 536 500 bytes 00:00:49.174
2 0:05:17.191 0:04:41.656 28 816 kbps 38 504 kbps 00:05:23.614 35 481 kbps 00:05:19.610 35 201 kbps 00:06:37.730 150 235 bytes 483 208 bytes 00:06:20.213
3 0:09:58.848 0:04:02.784 33 966 kbps 37 326 kbps 00:10:16.907 35 302 kbps 00:10:12.862 34 898 kbps 00:11:52.002 177 083 bytes 592 638 bytes 00:10:23.623
4 0:14:01.632 0:05:01.634 33 057 kbps 36 130 kbps 00:17:20.873 35 066 kbps 00:17:19.037 34 931 kbps 00:17:18.037 172 343 bytes 345 113 bytes 00:16:20.729
5 0:19:03.267 0:05:19.902 29 714 kbps 36 614 kbps 00:23:31.993 34 975 kbps 00:24:11.116 34 878 kbps 00:24:12.659 154 916 bytes 330 855 bytes 00:20:29.144
6 0:24:23.170 0:04:23.930 34 733 kbps 36 236 kbps 00:25:02.959 35 107 kbps 00:24:57.162 34 968 kbps 00:25:03.919 181 083 bytes 360 100 bytes 00:25:03.960
7 0:28:47.100 0:07:25.236 31 365 kbps 37 344 kbps 00:30:24.239 35 299 kbps 00:30:50.890 35 034 kbps 00:30:14.354 163 521 bytes 505 844 bytes 00:30:47.220
8 0:36:12.336 0:03:49.687 32 230 kbps 36 967 kbps 00:39:24.111 35 034 kbps 00:37:22.239 34 867 kbps 00:36:31.355 168 030 bytes 437 791 bytes 00:40:02.024
9 0:40:02.024 0:04:58.506 33 624 kbps 37 275 kbps 00:40:56.620 35 166 kbps 00:42:26.669 34 944 kbps 00:42:01.101 175 298 bytes 464 156 bytes 00:40:19.041
10 0:45:00.531 0:04:51.207 31 452 kbps 37 060 kbps 00:48:41.543 35 089 kbps 00:49:44.064 34 913 kbps 00:49:38.934 163 974 bytes 335 052 bytes 00:46:30.621
11 0:49:51.738 0:05:57.482 31 400 kbps 38 456 kbps 00:51:42.682 35 423 kbps 00:51:38.678 35 069 kbps 00:51:33.715 163 704 bytes 542 277 bytes 00:54:04.699
12 0:55:49.220 0:02:54.549 32 199 kbps 36 860 kbps 00:56:34.599 35 272 kbps 00:56:13.536 34 999 kbps 00:56:06.946 167 873 bytes 516 414 bytes 00:56:16.831
13 0:58:43.770 0:05:37.628 34 021 kbps 36 873 kbps 01:03:48.241 35 200 kbps 01:01:32.563 35 016 kbps 01:01:21.803 177 368 bytes 472 116 bytes 01:00:57.153
14 1:04:21.399 0:02:45.582 33 276 kbps 38 577 kbps 01:05:47.902 35 199 kbps 01:05:35.765 35 070 kbps 01:05:38.893 173 487 bytes 387 465 bytes 01:06:40.913
15 1:07:06.981 0:08:07.403 30 708 kbps 41 566 kbps 01:14:07.151 35 937 kbps 01:14:03.105 35 201 kbps 01:13:58.142 160 098 bytes 400 600 bytes 01:15:14.384
16 1:15:14.384 0:07:47.884 31 216 kbps 38 505 kbps 01:15:41.495 35 477 kbps 01:15:37.491 35 128 kbps 01:15:34.446 162 746 bytes 628 138 bytes 01:15:43.455
17 1:23:02.268 0:03:14.319 33 723 kbps 38 356 kbps 01:24:21.347 35 048 kbps 01:23:59.075 34 939 kbps 01:25:46.015 175 817 bytes 362 492 bytes 01:24:54.881
18 1:26:16.588 0:03:43.514 31 608 kbps 43 113 kbps 01:27:00.506 36 219 kbps 01:29:46.214 35 573 kbps 01:29:41.209 164 788 bytes 466 454 bytes 01:29:16.517
19 1:30:00.103 0:04:45.284 30 149 kbps 37 437 kbps 01:31:33.863 35 116 kbps 01:30:18.162 34 919 kbps 01:30:48.317 157 183 bytes 452 317 bytes 01:32:42.598
20 1:34:45.388 0:03:03.516 33 292 kbps 37 266 kbps 01:36:17.480 35 337 kbps 01:36:10.556 35 064 kbps 01:36:05.551 173 608 bytes 405 779 bytes 01:35:01.737

STREAM DIAGNOSTICS:

File PID Type Codec Language Seconds Bitrate Bytes Packets
---- --- ---- ----- -------- -------------- -------------- ------------- -----
02802.M2TS 4113 (0x1011) 0x1B AVC 5868,738 31 960 23 445 483 278 127 502 864
02802.M2TS 4352 (0x1100) 0x86 DTS-HD MA eng (English) 5868,738 3 090 2 266 470 212 13 236 728
02802.M2TS 4353 (0x1101) 0x81 AC3 eng (English) 5868,738 448 328 659 968 1 834 040
02802.M2TS 4354 (0x1102) 0x82 DTS fra (French) 5868,738 768 563 415 040 3 301 260
02802.M2TS 4355 (0x1103) 0x82 DTS deu (German) 5868,738 768 563 415 040 3 301 260
02802.M2TS 4356 (0x1104) 0x82 DTS ita (Italian) 5868,738 768 563 415 040 3 301 260
02802.M2TS 4357 (0x1105) 0x82 DTS jpn (Japanese) 5868,738 1 509 1 107 022 520 6 602 520
02802.M2TS 4358 (0x1106) 0x82 DTS rus (Russian) 5868,738 768 563 415 040 3 301 260
02802.M2TS 4359 (0x1107) 0x81 AC3 ukr (Ukrainian) 5868,738 448 328 659 968 1 834 040
02802.M2TS 4608 (0x1200) 0x90 PGS eng (English) 5868,738 71 52 187 828 295 118
02802.M2TS 4609 (0x1201) 0x90 PGS fra (French) 5868,738 56 41 316 124 233 304
02802.M2TS 4610 (0x1202) 0x90 PGS dan (Danish) 5868,738 55 40 358 984 226 015
02802.M2TS 4611 (0x1203) 0x90 PGS nld (Dutch) 5868,738 52 38 420 533 216 197
02802.M2TS 4612 (0x1204) 0x90 PGS fin (Finnish) 5868,738 56 40 851 895 230 936
02802.M2TS 4613 (0x1205) 0x90 PGS deu (German) 5868,738 66 48 225 377 271 960
02802.M2TS 4614 (0x1206) 0x90 PGS ita (Italian) 5868,738 58 42 236 017 238 417
02802.M2TS 4615 (0x1207) 0x90 PGS jpn (Japanese) 5868,738 23 16 808 412 98 634
02802.M2TS 4616 (0x1208) 0x90 PGS nor (Norwegian) 5868,738 55 40 060 578 226 570
02802.M2TS 4617 (0x1209) 0x90 PGS rus (Russian) 5868,738 58 42 767 283 240 721
02802.M2TS 4618 (0x120A) 0x90 PGS swe (Swedish) 5868,738 57 41 718 515 235 614
02802.M2TS 4619 (0x120B) 0x90 PGS ara (Arabic) 5868,738 37 26 997 706 155 669
02802.M2TS 4620 (0x120C) 0x90 PGS est (Estonian) 5868,738 55 40 343 786 228 116
02802.M2TS 4621 (0x120D) 0x90 PGS lav (Latvian) 5868,738 59 43 148 229 243 420
02802.M2TS 4622 (0x120E) 0x90 PGS lit (Lithuanian) 5868,738 56 41 071 229 232 131
02802.M2TS 4623 (0x120F) 0x90 PGS ukr (Ukrainian) 5868,738 56 40 953 191 231 515
02802.M2TS 4624 (0x1210) 0x90 PGS jpn (Japanese) 5868,738 0 195 997 1 143

<---- END FORUMS PASTE ---->

QUICK SUMMARY:

Disc Title: UNSANE_2018_EUR_BLUEBIRD
Disc Size: 34 020 005 184 bytes
Protection: AACS
BD-Java: Yes
Playlist: 00800.MPLS
Size: 32 271 323 136 bytes
Length: 1:37:48.904
Total Bitrate: 43,99 Mbps
Video: MPEG-4 AVC Video / 31959 kbps / 1080p / 23,976 fps / 16:9 / High Profile 4.1
Audio: English / DTS-HD Master Audio / 5.1 / 48 kHz / 3089 kbps / 24-bit (DTS Core: 5.1 / 48 kHz / 1509 kbps / 24-bit)
Audio: English / Dolby Digital Audio / 5.1 / 48 kHz / 448 kbps
Audio: French / DTS Audio / 5.1 / 48 kHz / 768 kbps / 24-bit
Audio: German / DTS Audio / 5.1 / 48 kHz / 768 kbps / 24-bit
Audio: Italian / DTS Audio / 5.1 / 48 kHz / 768 kbps / 24-bit
* Audio: Japanese / DTS Audio / 5.1 / 48 kHz / 1509 kbps / 24-bit
Audio: Russian / DTS Audio / 5.1 / 48 kHz / 768 kbps / 24-bit
Audio: Ukrainian / Dolby Digital Audio / 5.1 / 48 kHz / 448 kbps
Subtitle: English / 71,138 kbps
Subtitle: French / 56,319 kbps
Subtitle: Danish / 55,014 kbps
Subtitle: Dutch / 52,372 kbps
Subtitle: Finnish / 55,686 kbps
Subtitle: German / 65,737 kbps
Subtitle: Italian / 57,573 kbps
* Subtitle: Japanese / 22,912 kbps
Subtitle: Norwegian / 54,607 kbps
Subtitle: Russian / 58,297 kbps
Subtitle: Swedish / 56,867 kbps
Subtitle: Arabic / 36,801 kbps
Subtitle: Estonian / 54,993 kbps
Subtitle: Latvian / 58,816 kbps
Subtitle: Lithuanian / 55,985 kbps
Subtitle: Ukrainian / 55,824 kbps
* Subtitle: Japanese / 0,267 kbps

********************
PLAYLIST: 00801.MPLS
********************

<--- BEGIN FORUMS PASTE --->

Total Video
Title Codec Length Movie Size Disc Size Bitrate Bitrate Main Audio Track Secondary Audio Track
----- ------ ------- -------------- -------------- ------- ------- ------------------ ---------------------
00801.MPLS AVC 1:37:48 32 271 323 136 34 020 005 184 43,99 31,96 DTS-HD Master 5.1 3089Kbps (48kHz/24-bit) DD AC3 5.1 448Kbps

DISC INFO:

Disc Title: UNSANE_2018_EUR_BLUEBIRD
Disc Size: 34 020 005 184 bytes
Protection: AACS
BD-Java: Yes
BDInfo: 0.5.8

PLAYLIST REPORT:

Name: 00801.MPLS
Length: 1:37:48.904 (h:m:s.ms)
Size: 32 271 323 136 bytes
Total Bitrate: 43,99 Mbps

(*) Indicates included stream hidden by this playlist.

VIDEO:

Codec Bitrate Description
----- ------- -----------
MPEG-4 AVC Video 31959 kbps 1080p / 23,976 fps / 16:9 / High Profile 4.1

AUDIO:

Codec Language Bitrate Description
----- -------- ------- -----------
DTS-HD Master Audio English 3089 kbps 5.1 / 48 kHz / 3089 kbps / 24-bit (DTS Core: 5.1 / 48 kHz / 1509 kbps / 24-bit)
* Dolby Digital Audio English 448 kbps 5.1 / 48 kHz / 448 kbps
* DTS Audio French 768 kbps 5.1 / 48 kHz / 768 kbps / 24-bit
* DTS Audio German 768 kbps 5.1 / 48 kHz / 768 kbps / 24-bit
* DTS Audio Italian 768 kbps 5.1 / 48 kHz / 768 kbps / 24-bit
DTS Audio Japanese 1509 kbps 5.1 / 48 kHz / 1509 kbps / 24-bit
* DTS Audio Russian 768 kbps 5.1 / 48 kHz / 768 kbps / 24-bit
* Dolby Digital Audio Ukrainian 448 kbps 5.1 / 48 kHz / 448 kbps

SUBTITLES:

Codec Language Bitrate Description
----- -------- ------- -----------
Presentation Graphics English 71,138 kbps
* Presentation Graphics French 56,319 kbps
* Presentation Graphics Danish 55,014 kbps
* Presentation Graphics Dutch 52,372 kbps
* Presentation Graphics Finnish 55,686 kbps
* Presentation Graphics German 65,737 kbps
* Presentation Graphics Italian 57,573 kbps
Presentation Graphics Japanese 22,912 kbps
* Presentation Graphics Norwegian 54,607 kbps
* Presentation Graphics Russian 58,297 kbps
* Presentation Graphics Swedish 56,867 kbps
* Presentation Graphics Arabic 36,801 kbps
* Presentation Graphics Estonian 54,993 kbps
* Presentation Graphics Latvian 58,816 kbps
* Presentation Graphics Lithuanian 55,985 kbps
* Presentation Graphics Ukrainian 55,824 kbps
Presentation Graphics Japanese 0,267 kbps

FILES:

Name Time In Length Size Total Bitrate
---- ------- ------ ---- -------------
02802.M2TS 0:00:00.000 1:37:48.904 32 271 323 136 43 990

CHAPTERS:

Number Time In Length Avg Video Rate Max 1-Sec Rate Max 1-Sec Time Max 5-Sec Rate Max 5-Sec Time Max 10Sec Rate Max 10Sec Time Avg Frame Size Max Frame Size Max Frame Time
------ ------- ------ -------------- -------------- -------------- -------------- -------------- -------------- -------------- -------------- -------------- --------------
1 0:00:00.000 0:05:17.191 32 319 kbps 41 518 kbps 00:00:21.771 36 139 kbps 00:00:17.767 35 472 kbps 00:00:12.637 168 474 bytes 536 500 bytes 00:00:49.174
2 0:05:17.191 0:04:41.656 28 816 kbps 38 504 kbps 00:05:23.614 35 481 kbps 00:05:19.610 35 201 kbps 00:06:37.730 150 235 bytes 483 208 bytes 00:06:20.213
3 0:09:58.848 0:04:02.784 33 966 kbps 37 326 kbps 00:10:16.907 35 302 kbps 00:10:12.862 34 898 kbps 00:11:52.002 177 083 bytes 592 638 bytes 00:10:23.623
4 0:14:01.632 0:05:01.634 33 057 kbps 36 130 kbps 00:17:20.873 35 066 kbps 00:17:19.037 34 931 kbps 00:17:18.037 172 343 bytes 345 113 bytes 00:16:20.729
5 0:19:03.267 0:05:19.902 29 714 kbps 36 614 kbps 00:23:31.993 34 975 kbps 00:24:11.116 34 878 kbps 00:24:12.659 154 916 bytes 330 855 bytes 00:20:29.144
6 0:24:23.170 0:04:23.930 34 733 kbps 36 236 kbps 00:25:02.959 35 107 kbps 00:24:57.162 34 968 kbps 00:25:03.919 181 083 bytes 360 100 bytes 00:25:03.960
7 0:28:47.100 0:07:25.236 31 365 kbps 37 344 kbps 00:30:24.239 35 299 kbps 00:30:50.890 35 034 kbps 00:30:14.354 163 521 bytes 505 844 bytes 00:30:47.220
8 0:36:12.336 0:03:49.687 32 230 kbps 36 967 kbps 00:39:24.111 35 034 kbps 00:37:22.239 34 867 kbps 00:36:31.355 168 030 bytes 437 791 bytes 00:40:02.024
9 0:40:02.024 0:04:58.506 33 624 kbps 37 275 kbps 00:40:56.620 35 166 kbps 00:42:26.669 34 944 kbps 00:42:01.101 175 298 bytes 464 156 bytes 00:40:19.041
10 0:45:00.531 0:04:51.207 31 452 kbps 37 060 kbps 00:48:41.543 35 089 kbps 00:49:44.064 34 913 kbps 00:49:38.934 163 974 bytes 335 052 bytes 00:46:30.621
11 0:49:51.738 0:05:57.482 31 400 kbps 38 456 kbps 00:51:42.682 35 423 kbps 00:51:38.678 35 069 kbps 00:51:33.715 163 704 bytes 542 277 bytes 00:54:04.699
12 0:55:49.220 0:02:54.549 32 199 kbps 36 860 kbps 00:56:34.599 35 272 kbps 00:56:13.536 34 999 kbps 00:56:06.946 167 873 bytes 516 414 bytes 00:56:16.831
13 0:58:43.770 0:05:37.628 34 021 kbps 36 873 kbps 01:03:48.241 35 200 kbps 01:01:32.563 35 016 kbps 01:01:21.803 177 368 bytes 472 116 bytes 01:00:57.153
14 1:04:21.399 0:02:45.582 33 276 kbps 38 577 kbps 01:05:47.902 35 199 kbps 01:05:35.765 35 070 kbps 01:05:38.893 173 487 bytes 387 465 bytes 01:06:40.913
15 1:07:06.981 0:08:07.403 30 708 kbps 41 566 kbps 01:14:07.151 35 937 kbps 01:14:03.105 35 201 kbps 01:13:58.142 160 098 bytes 400 600 bytes 01:15:14.384
16 1:15:14.384 0:07:47.884 31 216 kbps 38 505 kbps 01:15:41.495 35 477 kbps 01:15:37.491 35 128 kbps 01:15:34.446 162 746 bytes 628 138 bytes 01:15:43.455
17 1:23:02.268 0:03:14.319 33 723 kbps 38 356 kbps 01:24:21.347 35 048 kbps 01:23:59.075 34 939 kbps 01:25:46.015 175 817 bytes 362 492 bytes 01:24:54.881
18 1:26:16.588 0:03:43.514 31 608 kbps 43 113 kbps 01:27:00.506 36 219 kbps 01:29:46.214 35 573 kbps 01:29:41.209 164 788 bytes 466 454 bytes 01:29:16.517
19 1:30:00.103 0:04:45.284 30 149 kbps 37 437 kbps 01:31:33.863 35 116 kbps 01:30:18.162 34 919 kbps 01:30:48.317 157 183 bytes 452 317 bytes 01:32:42.598
20 1:34:45.388 0:03:03.516 33 292 kbps 37 266 kbps 01:36:17.480 35 337 kbps 01:36:10.556 35 064 kbps 01:36:05.551 173 608 bytes 405 779 bytes 01:35:01.737

STREAM DIAGNOSTICS:

File PID Type Codec Language Seconds Bitrate Bytes Packets
---- --- ---- ----- -------- -------------- -------------- ------------- -----
02802.M2TS 4113 (0x1011) 0x1B AVC 5868,738 31 960 23 445 483 278 127 502 864
02802.M2TS 4352 (0x1100) 0x86 DTS-HD MA eng (English) 5868,738 3 090 2 266 470 212 13 236 728
02802.M2TS 4353 (0x1101) 0x81 AC3 eng (English) 5868,738 448 328 659 968 1 834 040
02802.M2TS 4354 (0x1102) 0x82 DTS fra (French) 5868,738 768 563 415 040 3 301 260
02802.M2TS 4355 (0x1103) 0x82 DTS deu (German) 5868,738 768 563 415 040 3 301 260
02802.M2TS 4356 (0x1104) 0x82 DTS ita (Italian) 5868,738 768 563 415 040 3 301 260
02802.M2TS 4357 (0x1105) 0x82 DTS jpn (Japanese) 5868,738 1 509 1 107 022 520 6 602 520
02802.M2TS 4358 (0x1106) 0x82 DTS rus (Russian) 5868,738 768 563 415 040 3 301 260
02802.M2TS 4359 (0x1107) 0x81 AC3 ukr (Ukrainian) 5868,738 448 328 659 968 1 834 040
02802.M2TS 4608 (0x1200) 0x90 PGS eng (English) 5868,738 71 52 187 828 295 118
02802.M2TS 4609 (0x1201) 0x90 PGS fra (French) 5868,738 56 41 316 124 233 304
02802.M2TS 4610 (0x1202) 0x90 PGS dan (Danish) 5868,738 55 40 358 984 226 015
02802.M2TS 4611 (0x1203) 0x90 PGS nld (Dutch) 5868,738 52 38 420 533 216 197
02802.M2TS 4612 (0x1204) 0x90 PGS fin (Finnish) 5868,738 56 40 851 895 230 936
02802.M2TS 4613 (0x1205) 0x90 PGS deu (German) 5868,738 66 48 225 377 271 960
02802.M2TS 4614 (0x1206) 0x90 PGS ita (Italian) 5868,738 58 42 236 017 238 417
02802.M2TS 4615 (0x1207) 0x90 PGS jpn (Japanese) 5868,738 23 16 808 412 98 634
02802.M2TS 4616 (0x1208) 0x90 PGS nor (Norwegian) 5868,738 55 40 060 578 226 570
02802.M2TS 4617 (0x1209) 0x90 PGS rus (Russian) 5868,738 58 42 767 283 240 721
02802.M2TS 4618 (0x120A) 0x90 PGS swe (Swedish) 5868,738 57 41 718 515 235 614
02802.M2TS 4619 (0x120B) 0x90 PGS ara (Arabic) 5868,738 37 26 997 706 155 669
02802.M2TS 4620 (0x120C) 0x90 PGS est (Estonian) 5868,738 55 40 343 786 228 116
02802.M2TS 4621 (0x120D) 0x90 PGS lav (Latvian) 5868,738 59 43 148 229 243 420
02802.M2TS 4622 (0x120E) 0x90 PGS lit (Lithuanian) 5868,738 56 41 071 229 232 131
02802.M2TS 4623 (0x120F) 0x90 PGS ukr (Ukrainian) 5868,738 56 40 953 191 231 515
02802.M2TS 4624 (0x1210) 0x90 PGS jpn (Japanese) 5868,738 0 195 997 1 143

<---- END FORUMS PASTE ---->

QUICK SUMMARY:

Disc Title: UNSANE_2018_EUR_BLUEBIRD
Disc Size: 34 020 005 184 bytes
Protection: AACS
BD-Java: Yes
Playlist: 00801.MPLS
Size: 32 271 323 136 bytes
Length: 1:37:48.904
Total Bitrate: 43,99 Mbps
Video: MPEG-4 AVC Video / 31959 kbps / 1080p / 23,976 fps / 16:9 / High Profile 4.1
Audio: English / DTS-HD Master Audio / 5.1 / 48 kHz / 3089 kbps / 24-bit (DTS Core: 5.1 / 48 kHz / 1509 kbps / 24-bit)
* Audio: English / Dolby Digital Audio / 5.1 / 48 kHz / 448 kbps
* Audio: French / DTS Audio / 5.1 / 48 kHz / 768 kbps / 24-bit
* Audio: German / DTS Audio / 5.1 / 48 kHz / 768 kbps / 24-bit
* Audio: Italian / DTS Audio / 5.1 / 48 kHz / 768 kbps / 24-bit
Audio: Japanese / DTS Audio / 5.1 / 48 kHz / 1509 kbps / 24-bit
* Audio: Russian / DTS Audio / 5.1 / 48 kHz / 768 kbps / 24-bit
* Audio: Ukrainian / Dolby Digital Audio / 5.1 / 48 kHz / 448 kbps
Subtitle: English / 71,138 kbps
* Subtitle: French / 56,319 kbps
* Subtitle: Danish / 55,014 kbps
* Subtitle: Dutch / 52,372 kbps
* Subtitle: Finnish / 55,686 kbps
* Subtitle: German / 65,737 kbps
* Subtitle: Italian / 57,573 kbps
Subtitle: Japanese / 22,912 kbps
* Subtitle: Norwegian / 54,607 kbps
* Subtitle: Russian / 58,297 kbps
* Subtitle: Swedish / 56,867 kbps
* Subtitle: Arabic / 36,801 kbps
* Subtitle: Estonian / 54,993 kbps
* Subtitle: Latvian / 58,816 kbps
* Subtitle: Lithuanian / 55,985 kbps
* Subtitle: Ukrainian / 55,824 kbps
Subtitle: Japanese / 0,267 kbps

********************
PLAYLIST: 00850.MPLS
********************

<--- BEGIN FORUMS PASTE --->

Total Video
Title Codec Length Movie Size Disc Size Bitrate Bitrate Main Audio Track Secondary Audio Track
----- ------ ------- -------------- -------------- ------- ------- ------------------ ---------------------
00850.MPLS AVC 1:37:48 32 271 323 136 34 020 005 184 43,99 31,96 DTS-HD Master 5.1 3089Kbps (48kHz/24-bit) DD AC3 5.1 448Kbps

DISC INFO:

Disc Title: UNSANE_2018_EUR_BLUEBIRD
Disc Size: 34 020 005 184 bytes
Protection: AACS
BD-Java: Yes
BDInfo: 0.5.8

PLAYLIST REPORT:

Name: 00850.MPLS
Length: 1:37:48.904 (h:m:s.ms)
Size: 32 271 323 136 bytes
Total Bitrate: 43,99 Mbps

(*) Indicates included stream hidden by this playlist.

VIDEO:

Codec Bitrate Description
----- ------- -----------
MPEG-4 AVC Video 31959 kbps 1080p / 23,976 fps / 16:9 / High Profile 4.1

AUDIO:

Codec Language Bitrate Description
----- -------- ------- -----------
DTS-HD Master Audio English 3089 kbps 5.1 / 48 kHz / 3089 kbps / 24-bit (DTS Core: 5.1 / 48 kHz / 1509 kbps / 24-bit)
Dolby Digital Audio English 448 kbps 5.1 / 48 kHz / 448 kbps
DTS Audio French 768 kbps 5.1 / 48 kHz / 768 kbps / 24-bit
DTS Audio German 768 kbps 5.1 / 48 kHz / 768 kbps / 24-bit
DTS Audio Italian 768 kbps 5.1 / 48 kHz / 768 kbps / 24-bit
* DTS Audio Japanese 1509 kbps 5.1 / 48 kHz / 1509 kbps / 24-bit
DTS Audio Russian 768 kbps 5.1 / 48 kHz / 768 kbps / 24-bit
Dolby Digital Audio Ukrainian 448 kbps 5.1 / 48 kHz / 448 kbps

SUBTITLES:

Codec Language Bitrate Description
----- -------- ------- -----------
Presentation Graphics English 71,138 kbps
Presentation Graphics French 56,319 kbps
Presentation Graphics Danish 55,014 kbps
Presentation Graphics Dutch 52,372 kbps
Presentation Graphics Finnish 55,686 kbps
Presentation Graphics German 65,737 kbps
Presentation Graphics Italian 57,573 kbps
* Presentation Graphics Japanese 22,912 kbps
Presentation Graphics Norwegian 54,607 kbps
Presentation Graphics Russian 58,297 kbps
Presentation Graphics Swedish 56,867 kbps
Presentation Graphics Arabic 36,801 kbps
Presentation Graphics Estonian 54,993 kbps
Presentation Graphics Latvian 58,816 kbps
Presentation Graphics Lithuanian 55,985 kbps
Presentation Graphics Ukrainian 55,824 kbps
* Presentation Graphics Japanese 0,267 kbps

FILES:

Name Time In Length Size Total Bitrate
---- ------- ------ ---- -------------
02802.M2TS 0:00:00.000 1:37:48.904 32 271 323 136 43 990

CHAPTERS:

Number Time In Length Avg Video Rate Max 1-Sec Rate Max 1-Sec Time Max 5-Sec Rate Max 5-Sec Time Max 10Sec Rate Max 10Sec Time Avg Frame Size Max Frame Size Max Frame Time
------ ------- ------ -------------- -------------- -------------- -------------- -------------- -------------- -------------- -------------- -------------- --------------
1 0:00:00.000 0:05:17.191 32 319 kbps 41 518 kbps 00:00:21.771 36 139 kbps 00:00:17.767 35 472 kbps 00:00:12.637 168 474 bytes 536 500 bytes 00:00:49.174
2 0:05:17.191 0:04:41.656 28 816 kbps 38 504 kbps 00:05:23.614 35 481 kbps 00:05:19.610 35 201 kbps 00:06:37.730 150 235 bytes 483 208 bytes 00:06:20.213
3 0:09:58.848 0:04:02.784 33 966 kbps 37 326 kbps 00:10:16.907 35 302 kbps 00:10:12.862 34 898 kbps 00:11:52.002 177 083 bytes 592 638 bytes 00:10:23.623
4 0:14:01.632 0:05:01.634 33 057 kbps 36 130 kbps 00:17:20.873 35 066 kbps 00:17:19.037 34 931 kbps 00:17:18.037 172 343 bytes 345 113 bytes 00:16:20.729
5 0:19:03.267 0:05:19.902 29 714 kbps 36 614 kbps 00:23:31.993 34 975 kbps 00:24:11.116 34 878 kbps 00:24:12.659 154 916 bytes 330 855 bytes 00:20:29.144
6 0:24:23.170 0:04:23.930 34 733 kbps 36 236 kbps 00:25:02.959 35 107 kbps 00:24:57.162 34 968 kbps 00:25:03.919 181 083 bytes 360 100 bytes 00:25:03.960
7 0:28:47.100 0:07:25.236 31 365 kbps 37 344 kbps 00:30:24.239 35 299 kbps 00:30:50.890 35 034 kbps 00:30:14.354 163 521 bytes 505 844 bytes 00:30:47.220
8 0:36:12.336 0:03:49.687 32 230 kbps 36 967 kbps 00:39:24.111 35 034 kbps 00:37:22.239 34 867 kbps 00:36:31.355 168 030 bytes 437 791 bytes 00:40:02.024
9 0:40:02.024 0:04:58.506 33 624 kbps 37 275 kbps 00:40:56.620 35 166 kbps 00:42:26.669 34 944 kbps 00:42:01.101 175 298 bytes 464 156 bytes 00:40:19.041
10 0:45:00.531 0:04:51.207 31 452 kbps 37 060 kbps 00:48:41.543 35 089 kbps 00:49:44.064 34 913 kbps 00:49:38.934 163 974 bytes 335 052 bytes 00:46:30.621
11 0:49:51.738 0:05:57.482 31 400 kbps 38 456 kbps 00:51:42.682 35 423 kbps 00:51:38.678 35 069 kbps 00:51:33.715 163 704 bytes 542 277 bytes 00:54:04.699
12 0:55:49.220 0:02:54.549 32 199 kbps 36 860 kbps 00:56:34.599 35 272 kbps 00:56:13.536 34 999 kbps 00:56:06.946 167 873 bytes 516 414 bytes 00:56:16.831
13 0:58:43.770 0:05:37.628 34 021 kbps 36 873 kbps 01:03:48.241 35 200 kbps 01:01:32.563 35 016 kbps 01:01:21.803 177 368 bytes 472 116 bytes 01:00:57.153
14 1:04:21.399 0:02:45.582 33 276 kbps 38 577 kbps 01:05:47.902 35 199 kbps 01:05:35.765 35 070 kbps 01:05:38.893 173 487 bytes 387 465 bytes 01:06:40.913
15 1:07:06.981 0:08:07.403 30 708 kbps 41 566 kbps 01:14:07.151 35 937 kbps 01:14:03.105 35 201 kbps 01:13:58.142 160 098 bytes 400 600 bytes 01:15:14.384
16 1:15:14.384 0:07:47.884 31 216 kbps 38 505 kbps 01:15:41.495 35 477 kbps 01:15:37.491 35 128 kbps 01:15:34.446 162 746 bytes 628 138 bytes 01:15:43.455
17 1:23:02.268 0:03:14.319 33 723 kbps 38 356 kbps 01:24:21.347 35 048 kbps 01:23:59.075 34 939 kbps 01:25:46.015 175 817 bytes 362 492 bytes 01:24:54.881
18 1:26:16.588 0:03:43.514 31 608 kbps 43 113 kbps 01:27:00.506 36 219 kbps 01:29:46.214 35 573 kbps 01:29:41.209 164 788 bytes 466 454 bytes 01:29:16.517
19 1:30:00.103 0:04:45.284 30 149 kbps 37 437 kbps 01:31:33.863 35 116 kbps 01:30:18.162 34 919 kbps 01:30:48.317 157 183 bytes 452 317 bytes 01:32:42.598
20 1:34:45.388 0:03:03.516 33 292 kbps 37 266 kbps 01:36:17.480 35 337 kbps 01:36:10.556 35 064 kbps 01:36:05.551 173 608 bytes 405 779 bytes 01:35:01.737

STREAM DIAGNOSTICS:

File PID Type Codec Language Seconds Bitrate Bytes Packets
---- --- ---- ----- -------- -------------- -------------- ------------- -----
02802.M2TS 4113 (0x1011) 0x1B AVC 5868,738 31 960 23 445 483 278 127 502 864
02802.M2TS 4352 (0x1100) 0x86 DTS-HD MA eng (English) 5868,738 3 090 2 266 470 212 13 236 728
02802.M2TS 4353 (0x1101) 0x81 AC3 eng (English) 5868,738 448 328 659 968 1 834 040
02802.M2TS 4354 (0x1102) 0x82 DTS fra (French) 5868,738 768 563 415 040 3 301 260
02802.M2TS 4355 (0x1103) 0x82 DTS deu (German) 5868,738 768 563 415 040 3 301 260
02802.M2TS 4356 (0x1104) 0x82 DTS ita (Italian) 5868,738 768 563 415 040 3 301 260
02802.M2TS 4357 (0x1105) 0x82 DTS jpn (Japanese) 5868,738 1 509 1 107 022 520 6 602 520
02802.M2TS 4358 (0x1106) 0x82 DTS rus (Russian) 5868,738 768 563 415 040 3 301 260
02802.M2TS 4359 (0x1107) 0x81 AC3 ukr (Ukrainian) 5868,738 448 328 659 968 1 834 040
02802.M2TS 4608 (0x1200) 0x90 PGS eng (English) 5868,738 71 52 187 828 295 118
02802.M2TS 4609 (0x1201) 0x90 PGS fra (French) 5868,738 56 41 316 124 233 304
02802.M2TS 4610 (0x1202) 0x90 PGS dan (Danish) 5868,738 55 40 358 984 226 015
02802.M2TS 4611 (0x1203) 0x90 PGS nld (Dutch) 5868,738 52 38 420 533 216 197
02802.M2TS 4612 (0x1204) 0x90 PGS fin (Finnish) 5868,738 56 40 851 895 230 936
02802.M2TS 4613 (0x1205) 0x90 PGS deu (German) 5868,738 66 48 225 377 271 960
02802.M2TS 4614 (0x1206) 0x90 PGS ita (Italian) 5868,738 58 42 236 017 238 417
02802.M2TS 4615 (0x1207) 0x90 PGS jpn (Japanese) 5868,738 23 16 808 412 98 634
02802.M2TS 4616 (0x1208) 0x90 PGS nor (Norwegian) 5868,738 55 40 060 578 226 570
02802.M2TS 4617 (0x1209) 0x90 PGS rus (Russian) 5868,738 58 42 767 283 240 721
02802.M2TS 4618 (0x120A) 0x90 PGS swe (Swedish) 5868,738 57 41 718 515 235 614
02802.M2TS 4619 (0x120B) 0x90 PGS ara (Arabic) 5868,738 37 26 997 706 155 669
02802.M2TS 4620 (0x120C) 0x90 PGS est (Estonian) 5868,738 55 40 343 786 228 116
02802.M2TS 4621 (0x120D) 0x90 PGS lav (Latvian) 5868,738 59 43 148 229 243 420
02802.M2TS 4622 (0x120E) 0x90 PGS lit (Lithuanian) 5868,738 56 41 071 229 232 131
02802.M2TS 4623 (0x120F) 0x90 PGS ukr (Ukrainian) 5868,738 56 40 953 191 231 515
02802.M2TS 4624 (0x1210) 0x90 PGS jpn (Japanese) 5868,738 0 195 997 1 143

<---- END FORUMS PASTE ---->

QUICK SUMMARY:

Disc Title: UNSANE_2018_EUR_BLUEBIRD
Disc Size: 34 020 005 184 bytes
Protection: AACS
BD-Java: Yes
Playlist: 00850.MPLS
Size: 32 271 323 136 bytes
Length: 1:37:48.904
Total Bitrate: 43,99 Mbps
Video: MPEG-4 AVC Video / 31959 kbps / 1080p / 23,976 fps / 16:9 / High Profile 4.1
Audio: English / DTS-HD Master Audio / 5.1 / 48 kHz / 3089 kbps / 24-bit (DTS Core: 5.1 / 48 kHz / 1509 kbps / 24-bit)
Audio: English / Dolby Digital Audio / 5.1 / 48 kHz / 448 kbps
Audio: French / DTS Audio / 5.1 / 48 kHz / 768 kbps / 24-bit
Audio: German / DTS Audio / 5.1 / 48 kHz / 768 kbps / 24-bit
Audio: Italian / DTS Audio / 5.1 / 48 kHz / 768 kbps / 24-bit
* Audio: Japanese / DTS Audio / 5.1 / 48 kHz / 1509 kbps / 24-bit
Audio: Russian / DTS Audio / 5.1 / 48 kHz / 768 kbps / 24-bit
Audio: Ukrainian / Dolby Digital Audio / 5.1 / 48 kHz / 448 kbps
Subtitle: English / 71,138 kbps
Subtitle: French / 56,319 kbps
Subtitle: Danish / 55,014 kbps
Subtitle: Dutch / 52,372 kbps
Subtitle: Finnish / 55,686 kbps
Subtitle: German / 65,737 kbps
Subtitle: Italian / 57,573 kbps
* Subtitle: Japanese / 22,912 kbps
Subtitle: Norwegian / 54,607 kbps
Subtitle: Russian / 58,297 kbps
Subtitle: Swedish / 56,867 kbps
Subtitle: Arabic / 36,801 kbps
Subtitle: Estonian / 54,993 kbps
Subtitle: Latvian / 58,816 kbps
Subtitle: Lithuanian / 55,985 kbps
Subtitle: Ukrainian / 55,824 kbps
* Subtitle: Japanese / 0,267 kbps

********************
PLAYLIST: 00851.MPLS
********************

<--- BEGIN FORUMS PASTE --->

Total Video
Title Codec Length Movie Size Disc Size Bitrate Bitrate Main Audio Track Secondary Audio Track
----- ------ ------- -------------- -------------- ------- ------- ------------------ ---------------------
00851.MPLS AVC 1:37:48 32 271 323 136 34 020 005 184 43,99 31,96 DTS-HD Master 5.1 3089Kbps (48kHz/24-bit) DD AC3 5.1 448Kbps

DISC INFO:

Disc Title: UNSANE_2018_EUR_BLUEBIRD
Disc Size: 34 020 005 184 bytes
Protection: AACS
BD-Java: Yes
BDInfo: 0.5.8

PLAYLIST REPORT:

Name: 00851.MPLS
Length: 1:37:48.904 (h:m:s.ms)
Size: 32 271 323 136 bytes
Total Bitrate: 43,99 Mbps

(*) Indicates included stream hidden by this playlist.

VIDEO:

Codec Bitrate Description
----- ------- -----------
MPEG-4 AVC Video 31959 kbps 1080p / 23,976 fps / 16:9 / High Profile 4.1

AUDIO:

Codec Language Bitrate Description
----- -------- ------- -----------
DTS-HD Master Audio English 3089 kbps 5.1 / 48 kHz / 3089 kbps / 24-bit (DTS Core: 5.1 / 48 kHz / 1509 kbps / 24-bit)
* Dolby Digital Audio English 448 kbps 5.1 / 48 kHz / 448 kbps
* DTS Audio French 768 kbps 5.1 / 48 kHz / 768 kbps / 24-bit
* DTS Audio German 768 kbps 5.1 / 48 kHz / 768 kbps / 24-bit
* DTS Audio Italian 768 kbps 5.1 / 48 kHz / 768 kbps / 24-bit
DTS Audio Japanese 1509 kbps 5.1 / 48 kHz / 1509 kbps / 24-bit
* DTS Audio Russian 768 kbps 5.1 / 48 kHz / 768 kbps / 24-bit
* Dolby Digital Audio Ukrainian 448 kbps 5.1 / 48 kHz / 448 kbps

SUBTITLES:

Codec Language Bitrate Description
----- -------- ------- -----------
Presentation Graphics English 71,138 kbps
* Presentation Graphics French 56,319 kbps
* Presentation Graphics Danish 55,014 kbps
* Presentation Graphics Dutch 52,372 kbps
* Presentation Graphics Finnish 55,686 kbps
* Presentation Graphics German 65,737 kbps
* Presentation Graphics Italian 57,573 kbps
Presentation Graphics Japanese 22,912 kbps
* Presentation Graphics Norwegian 54,607 kbps
* Presentation Graphics Russian 58,297 kbps
* Presentation Graphics Swedish 56,867 kbps
* Presentation Graphics Arabic 36,801 kbps
* Presentation Graphics Estonian 54,993 kbps
* Presentation Graphics Latvian 58,816 kbps
* Presentation Graphics Lithuanian 55,985 kbps
* Presentation Graphics Ukrainian 55,824 kbps
Presentation Graphics Japanese 0,267 kbps

FILES:

Name Time In Length Size Total Bitrate
---- ------- ------ ---- -------------
02802.M2TS 0:00:00.000 1:37:48.904 32 271 323 136 43 990

CHAPTERS:

Number Time In Length Avg Video Rate Max 1-Sec Rate Max 1-Sec Time Max 5-Sec Rate Max 5-Sec Time Max 10Sec Rate Max 10Sec Time Avg Frame Size Max Frame Size Max Frame Time
------ ------- ------ -------------- -------------- -------------- -------------- -------------- -------------- -------------- -------------- -------------- --------------
1 0:00:00.000 0:05:17.191 32 319 kbps 41 518 kbps 00:00:21.771 36 139 kbps 00:00:17.767 35 472 kbps 00:00:12.637 168 474 bytes 536 500 bytes 00:00:49.174
2 0:05:17.191 0:04:41.656 28 816 kbps 38 504 kbps 00:05:23.614 35 481 kbps 00:05:19.610 35 201 kbps 00:06:37.730 150 235 bytes 483 208 bytes 00:06:20.213
3 0:09:58.848 0:04:02.784 33 966 kbps 37 326 kbps 00:10:16.907 35 302 kbps 00:10:12.862 34 898 kbps 00:11:52.002 177 083 bytes 592 638 bytes 00:10:23.623
4 0:14:01.632 0:05:01.634 33 057 kbps 36 130 kbps 00:17:20.873 35 066 kbps 00:17:19.037 34 931 kbps 00:17:18.037 172 343 bytes 345 113 bytes 00:16:20.729
5 0:19:03.267 0:05:19.902 29 714 kbps 36 614 kbps 00:23:31.993 34 975 kbps 00:24:11.116 34 878 kbps 00:24:12.659 154 916 bytes 330 855 bytes 00:20:29.144
6 0:24:23.170 0:04:23.930 34 733 kbps 36 236 kbps 00:25:02.959 35 107 kbps 00:24:57.162 34 968 kbps 00:25:03.919 181 083 bytes 360 100 bytes 00:25:03.960
7 0:28:47.100 0:07:25.236 31 365 kbps 37 344 kbps 00:30:24.239 35 299 kbps 00:30:50.890 35 034 kbps 00:30:14.354 163 521 bytes 505 844 bytes 00:30:47.220
8 0:36:12.336 0:03:49.687 32 230 kbps 36 967 kbps 00:39:24.111 35 034 kbps 00:37:22.239 34 867 kbps 00:36:31.355 168 030 bytes 437 791 bytes 00:40:02.024
9 0:40:02.024 0:04:58.506 33 624 kbps 37 275 kbps 00:40:56.620 35 166 kbps 00:42:26.669 34 944 kbps 00:42:01.101 175 298 bytes 464 156 bytes 00:40:19.041
10 0:45:00.531 0:04:51.207 31 452 kbps 37 060 kbps 00:48:41.543 35 089 kbps 00:49:44.064 34 913 kbps 00:49:38.934 163 974 bytes 335 052 bytes 00:46:30.621
11 0:49:51.738 0:05:57.482 31 400 kbps 38 456 kbps 00:51:42.682 35 423 kbps 00:51:38.678 35 069 kbps 00:51:33.715 163 704 bytes 542 277 bytes 00:54:04.699
12 0:55:49.220 0:02:54.549 32 199 kbps 36 860 kbps 00:56:34.599 35 272 kbps 00:56:13.536 34 999 kbps 00:56:06.946 167 873 bytes 516 414 bytes 00:56:16.831
13 0:58:43.770 0:05:37.628 34 021 kbps 36 873 kbps 01:03:48.241 35 200 kbps 01:01:32.563 35 016 kbps 01:01:21.803 177 368 bytes 472 116 bytes 01:00:57.153
14 1:04:21.399 0:02:45.582 33 276 kbps 38 577 kbps 01:05:47.902 35 199 kbps 01:05:35.765 35 070 kbps 01:05:38.893 173 487 bytes 387 465 bytes 01:06:40.913
15 1:07:06.981 0:08:07.403 30 708 kbps 41 566 kbps 01:14:07.151 35 937 kbps 01:14:03.105 35 201 kbps 01:13:58.142 160 098 bytes 400 600 bytes 01:15:14.384
16 1:15:14.384 0:07:47.884 31 216 kbps 38 505 kbps 01:15:41.495 35 477 kbps 01:15:37.491 35 128 kbps 01:15:34.446 162 746 bytes 628 138 bytes 01:15:43.455
17 1:23:02.268 0:03:14.319 33 723 kbps 38 356 kbps 01:24:21.347 35 048 kbps 01:23:59.075 34 939 kbps 01:25:46.015 175 817 bytes 362 492 bytes 01:24:54.881
18 1:26:16.588 0:03:43.514 31 608 kbps 43 113 kbps 01:27:00.506 36 219 kbps 01:29:46.214 35 573 kbps 01:29:41.209 164 788 bytes 466 454 bytes 01:29:16.517
19 1:30:00.103 0:04:45.284 30 149 kbps 37 437 kbps 01:31:33.863 35 116 kbps 01:30:18.162 34 919 kbps 01:30:48.317 157 183 bytes 452 317 bytes 01:32:42.598
20 1:34:45.388 0:03:03.516 33 292 kbps 37 266 kbps 01:36:17.480 35 337 kbps 01:36:10.556 35 064 kbps 01:36:05.551 173 608 bytes 405 779 bytes 01:35:01.737

STREAM DIAGNOSTICS:

File PID Type Codec Language Seconds Bitrate Bytes Packets
---- --- ---- ----- -------- -------------- -------------- ------------- -----
02802.M2TS 4113 (0x1011) 0x1B AVC 5868,738 31 960 23 445 483 278 127 502 864
02802.M2TS 4352 (0x1100) 0x86 DTS-HD MA eng (English) 5868,738 3 090 2 266 470 212 13 236 728
02802.M2TS 4353 (0x1101) 0x81 AC3 eng (English) 5868,738 448 328 659 968 1 834 040
02802.M2TS 4354 (0x1102) 0x82 DTS fra (French) 5868,738 768 563 415 040 3 301 260
02802.M2TS 4355 (0x1103) 0x82 DTS deu (German) 5868,738 768 563 415 040 3 301 260
02802.M2TS 4356 (0x1104) 0x82 DTS ita (Italian) 5868,738 768 563 415 040 3 301 260
02802.M2TS 4357 (0x1105) 0x82 DTS jpn (Japanese) 5868,738 1 509 1 107 022 520 6 602 520
02802.M2TS 4358 (0x1106) 0x82 DTS rus (Russian) 5868,738 768 563 415 040 3 301 260
02802.M2TS 4359 (0x1107) 0x81 AC3 ukr (Ukrainian) 5868,738 448 328 659 968 1 834 040
02802.M2TS 4608 (0x1200) 0x90 PGS eng (English) 5868,738 71 52 187 828 295 118
02802.M2TS 4609 (0x1201) 0x90 PGS fra (French) 5868,738 56 41 316 124 233 304
02802.M2TS 4610 (0x1202) 0x90 PGS dan (Danish) 5868,738 55 40 358 984 226 015
02802.M2TS 4611 (0x1203) 0x90 PGS nld (Dutch) 5868,738 52 38 420 533 216 197
02802.M2TS 4612 (0x1204) 0x90 PGS fin (Finnish) 5868,738 56 40 851 895 230 936
02802.M2TS 4613 (0x1205) 0x90 PGS deu (German) 5868,738 66 48 225 377 271 960
02802.M2TS 4614 (0x1206) 0x90 PGS ita (Italian) 5868,738 58 42 236 017 238 417
02802.M2TS 4615 (0x1207) 0x90 PGS jpn (Japanese) 5868,738 23 16 808 412 98 634
02802.M2TS 4616 (0x1208) 0x90 PGS nor (Norwegian) 5868,738 55 40 060 578 226 570
02802.M2TS 4617 (0x1209) 0x90 PGS rus (Russian) 5868,738 58 42 767 283 240 721
02802.M2TS 4618 (0x120A) 0x90 PGS swe (Swedish) 5868,738 57 41 718 515 235 614
02802.M2TS 4619 (0x120B) 0x90 PGS ara (Arabic) 5868,738 37 26 997 706 155 669
02802.M2TS 4620 (0x120C) 0x90 PGS est (Estonian) 5868,738 55 40 343 786 228 116
02802.M2TS 4621 (0x120D) 0x90 PGS lav (Latvian) 5868,738 59 43 148 229 243 420
02802.M2TS 4622 (0x120E) 0x90 PGS lit (Lithuanian) 5868,738 56 41 071 229 232 131
02802.M2TS 4623 (0x120F) 0x90 PGS ukr (Ukrainian) 5868,738 56 40 953 191 231 515
02802.M2TS 4624 (0x1210) 0x90 PGS jpn (Japanese) 5868,738 0 195 997 1 143

<---- END FORUMS PASTE ---->

QUICK SUMMARY:

Disc Title: UNSANE_2018_EUR_BLUEBIRD
Disc Size: 34 020 005 184 bytes
Protection: AACS
BD-Java: Yes
Playlist: 00851.MPLS
Size: 32 271 323 136 bytes
Length: 1:37:48.904
Total Bitrate: 43,99 Mbps
Video: MPEG-4 AVC Video / 31959 kbps / 1080p / 23,976 fps / 16:9 / High Profile 4.1
Audio: English / DTS-HD Master Audio / 5.1 / 48 kHz / 3089 kbps / 24-bit (DTS Core: 5.1 / 48 kHz / 1509 kbps / 24-bit)
* Audio: English / Dolby Digital Audio / 5.1 / 48 kHz / 448 kbps
* Audio: French / DTS Audio / 5.1 / 48 kHz / 768 kbps / 24-bit
* Audio: German / DTS Audio / 5.1 / 48 kHz / 768 kbps / 24-bit
* Audio: Italian / DTS Audio / 5.1 / 48 kHz / 768 kbps / 24-bit
Audio: Japanese / DTS Audio / 5.1 / 48 kHz / 1509 kbps / 24-bit
* Audio: Russian / DTS Audio / 5.1 / 48 kHz / 768 kbps / 24-bit
* Audio: Ukrainian / Dolby Digital Audio / 5.1 / 48 kHz / 448 kbps
Subtitle: English / 71,138 kbps
* Subtitle: French / 56,319 kbps
* Subtitle: Danish / 55,014 kbps
* Subtitle: Dutch / 52,372 kbps
* Subtitle: Finnish / 55,686 kbps
* Subtitle: German / 65,737 kbps
* Subtitle: Italian / 57,573 kbps
Subtitle: Japanese / 22,912 kbps
* Subtitle: Norwegian / 54,607 kbps
* Subtitle: Russian / 58,297 kbps
* Subtitle: Swedish / 56,867 kbps
* Subtitle: Arabic / 36,801 kbps
* Subtitle: Estonian / 54,993 kbps
* Subtitle: Latvian / 58,816 kbps
* Subtitle: Lithuanian / 55,985 kbps
* Subtitle: Ukrainian / 55,824 kbps
Subtitle: Japanese / 0,267 kbps

********************
PLAYLIST: 00304.MPLS
********************

<--- BEGIN FORUMS PASTE --->

Total Video
Title Codec Length Movie Size Disc Size Bitrate Bitrate Main Audio Track Secondary Audio Track
----- ------ ------- -------------- -------------- ------- ------- ------------------ ---------------------
00304.MPLS AVC 0:04:28 1 137 291 264 34 020 005 184 33,89 31,76 DD AC3 2.0 224Kbps

DISC INFO:

Disc Title: UNSANE_2018_EUR_BLUEBIRD
Disc Size: 34 020 005 184 bytes
Protection: AACS
BD-Java: Yes
BDInfo: 0.5.8

PLAYLIST REPORT:

Name: 00304.MPLS
Length: 0:04:28.476 (h:m:s.ms)
Size: 1 137 291 264 bytes
Total Bitrate: 33,89 Mbps

(*) Indicates included stream hidden by this playlist.

VIDEO:

Codec Bitrate Description
----- ------- -----------
MPEG-4 AVC Video 31755 kbps 1080p / 23,976 fps / 16:9 / High Profile 4.1

AUDIO:

Codec Language Bitrate Description
----- -------- ------- -----------
Dolby Digital Audio English 224 kbps 2.0 / 48 kHz / 224 kbps

SUBTITLES:

Codec Language Bitrate Description
----- -------- ------- -----------
Presentation Graphics English 46,870 kbps
Presentation Graphics French 40,253 kbps
Presentation Graphics Danish 36,495 kbps
Presentation Graphics Dutch 37,329 kbps
Presentation Graphics Finnish 37,875 kbps
Presentation Graphics German 40,913 kbps
Presentation Graphics Italian 41,181 kbps
* Presentation Graphics Japanese 14,201 kbps
Presentation Graphics Norwegian 35,059 kbps
Presentation Graphics Russian 39,837 kbps
Presentation Graphics Swedish 37,308 kbps

FILES:

Name Time In Length Size Total Bitrate
---- ------- ------ ---- -------------
02808.M2TS 0:00:00.000 0:04:28.476 1 137 291 264 33 889

CHAPTERS:

Number Time In Length Avg Video Rate Max 1-Sec Rate Max 1-Sec Time Max 5-Sec Rate Max 5-Sec Time Max 10Sec Rate Max 10Sec Time Avg Frame Size Max Frame Size Max Frame Time
------ ------- ------ -------------- -------------- -------------- -------------- -------------- -------------- -------------- -------------- -------------- --------------
1 0:00:00.000 0:04:28.476 31 755 kbps 40 971 kbps 00:04:09.123 38 342 kbps 00:04:13.586 37 609 kbps 00:00:15.390 165 557 bytes 637 718 bytes 00:04:17.840

STREAM DIAGNOSTICS:

File PID Type Codec Language Seconds Bitrate Bytes Packets
---- --- ---- ----- -------- -------------- -------------- ------------- -----
02808.M2TS 4113 (0x1011) 0x1B AVC 268,310 31 775 1 065 691 328 5 795 509
02808.M2TS 4352 (0x1100) 0x81 AC3 eng (English) 268,310 224 7 517 440 41 950
02808.M2TS 4608 (0x1200) 0x90 PGS eng (English) 268,310 47 1 572 921 8 825
02808.M2TS 4609 (0x1201) 0x90 PGS fra (French) 268,310 40 1 350 874 7 584
02808.M2TS 4610 (0x1202) 0x90 PGS dan (Danish) 268,310 37 1 224 770 6 898
02808.M2TS 4611 (0x1203) 0x90 PGS nld (Dutch) 268,310 37 1 252 741 7 047
02808.M2TS 4612 (0x1204) 0x90 PGS fin (Finnish) 268,310 38 1 271 061 7 150
02808.M2TS 4613 (0x1205) 0x90 PGS deu (German) 268,310 41 1 373 007 7 704
02808.M2TS 4614 (0x1206) 0x90 PGS ita (Italian) 268,310 41 1 382 022 7 755
02808.M2TS 4615 (0x1207) 0x90 PGS jpn (Japanese) 268,310 14 476 581 2 745
02808.M2TS 4616 (0x1208) 0x90 PGS nor (Norwegian) 268,310 35 1 176 574 6 634
02808.M2TS 4617 (0x1209) 0x90 PGS rus (Russian) 268,310 40 1 336 926 7 506
02808.M2TS 4618 (0x120A) 0x90 PGS swe (Swedish) 268,310 37 1 252 046 7 048

<---- END FORUMS PASTE ---->

QUICK SUMMARY:

Disc Title: UNSANE_2018_EUR_BLUEBIRD
Disc Size: 34 020 005 184 bytes
Protection: AACS
BD-Java: Yes
Playlist: 00304.MPLS
Size: 1 137 291 264 bytes
Length: 0:04:28.476
Total Bitrate: 33,89 Mbps
Video: MPEG-4 AVC Video / 31755 kbps / 1080p / 23,976 fps / 16:9 / High Profile 4.1
Audio: English / Dolby Digital Audio / 2.0 / 48 kHz / 224 kbps
Subtitle: English / 46,870 kbps
Subtitle: French / 40,253 kbps
Subtitle: Danish / 36,495 kbps
Subtitle: Dutch / 37,329 kbps
Subtitle: Finnish / 37,875 kbps
Subtitle: German / 40,913 kbps
Subtitle: Italian / 41,181 kbps
* Subtitle: Japanese / 14,201 kbps
Subtitle: Norwegian / 35,059 kbps
Subtitle: Russian / 39,837 kbps
Subtitle: Swedish / 37,308 kbps

********************
PLAYLIST: 00305.MPLS
********************

<--- BEGIN FORUMS PASTE --->

Total Video
Title Codec Length Movie Size Disc Size Bitrate Bitrate Main Audio Track Secondary Audio Track
----- ------ ------- -------------- -------------- ------- ------- ------------------ ---------------------
00305.MPLS AVC 0:04:28 1 137 291 264 34 020 005 184 33,89 31,76 DD AC3 2.0 224Kbps

DISC INFO:

Disc Title: UNSANE_2018_EUR_BLUEBIRD
Disc Size: 34 020 005 184 bytes
Protection: AACS
BD-Java: Yes
BDInfo: 0.5.8

PLAYLIST REPORT:

Name: 00305.MPLS
Length: 0:04:28.476 (h:m:s.ms)
Size: 1 137 291 264 bytes
Total Bitrate: 33,89 Mbps

(*) Indicates included stream hidden by this playlist.

VIDEO:

Codec Bitrate Description
----- ------- -----------
MPEG-4 AVC Video 31755 kbps 1080p / 23,976 fps / 16:9 / High Profile 4.1

AUDIO:

Codec Language Bitrate Description
----- -------- ------- -----------
Dolby Digital Audio English 224 kbps 2.0 / 48 kHz / 224 kbps

SUBTITLES:

Codec Language Bitrate Description
----- -------- ------- -----------
* Presentation Graphics English 46,870 kbps
* Presentation Graphics French 40,253 kbps
* Presentation Graphics Danish 36,495 kbps
* Presentation Graphics Dutch 37,329 kbps
* Presentation Graphics Finnish 37,875 kbps
* Presentation Graphics German 40,913 kbps
* Presentation Graphics Italian 41,181 kbps
Presentation Graphics Japanese 14,201 kbps
* Presentation Graphics Norwegian 35,059 kbps
* Presentation Graphics Russian 39,837 kbps
* Presentation Graphics Swedish 37,308 kbps

FILES:

Name Time In Length Size Total Bitrate
---- ------- ------ ---- -------------
02808.M2TS 0:00:00.000 0:04:28.476 1 137 291 264 33 889

CHAPTERS:

Number Time In Length Avg Video Rate Max 1-Sec Rate Max 1-Sec Time Max 5-Sec Rate Max 5-Sec Time Max 10Sec Rate Max 10Sec Time Avg Frame Size Max Frame Size Max Frame Time
------ ------- ------ -------------- -------------- -------------- -------------- -------------- -------------- -------------- -------------- -------------- --------------
1 0:00:00.000 0:04:28.476 31 755 kbps 40 971 kbps 00:04:09.123 38 342 kbps 00:04:13.586 37 609 kbps 00:00:15.390 165 557 bytes 637 718 bytes 00:04:17.840

STREAM DIAGNOSTICS:

File PID Type Codec Language Seconds Bitrate Bytes Packets
---- --- ---- ----- -------- -------------- -------------- ------------- -----
02808.M2TS 4113 (0x1011) 0x1B AVC 268,310 31 775 1 065 691 328 5 795 509
02808.M2TS 4352 (0x1100) 0x81 AC3 eng (English) 268,310 224 7 517 440 41 950
02808.M2TS 4608 (0x1200) 0x90 PGS eng (English) 268,310 47 1 572 921 8 825
02808.M2TS 4609 (0x1201) 0x90 PGS fra (French) 268,310 40 1 350 874 7 584
02808.M2TS 4610 (0x1202) 0x90 PGS dan (Danish) 268,310 37 1 224 770 6 898
02808.M2TS 4611 (0x1203) 0x90 PGS nld (Dutch) 268,310 37 1 252 741 7 047
02808.M2TS 4612 (0x1204) 0x90 PGS fin (Finnish) 268,310 38 1 271 061 7 150
02808.M2TS 4613 (0x1205) 0x90 PGS deu (German) 268,310 41 1 373 007 7 704
02808.M2TS 4614 (0x1206) 0x90 PGS ita (Italian) 268,310 41 1 382 022 7 755
02808.M2TS 4615 (0x1207) 0x90 PGS jpn (Japanese) 268,310 14 476 581 2 745
02808.M2TS 4616 (0x1208) 0x90 PGS nor (Norwegian) 268,310 35 1 176 574 6 634
02808.M2TS 4617 (0x1209) 0x90 PGS rus (Russian) 268,310 40 1 336 926 7 506
02808.M2TS 4618 (0x120A) 0x90 PGS swe (Swedish) 268,310 37 1 252 046 7 048

<---- END FORUMS PASTE ---->

QUICK SUMMARY:

Disc Title: UNSANE_2018_EUR_BLUEBIRD
Disc Size: 34 020 005 184 bytes
Protection: AACS
BD-Java: Yes
Playlist: 00305.MPLS
Size: 1 137 291 264 bytes
Length: 0:04:28.476
Total Bitrate: 33,89 Mbps
Video: MPEG-4 AVC Video / 31755 kbps / 1080p / 23,976 fps / 16:9 / High Profile 4.1
Audio: English / Dolby Digital Audio / 2.0 / 48 kHz / 224 kbps
* Subtitle: English / 46,870 kbps
* Subtitle: French / 40,253 kbps
* Subtitle: Danish / 36,495 kbps
* Subtitle: Dutch / 37,329 kbps
* Subtitle: Finnish / 37,875 kbps
* Subtitle: German / 40,913 kbps
* Subtitle: Italian / 41,181 kbps
Subtitle: Japanese / 14,201 kbps
* Subtitle: Norwegian / 35,059 kbps
* Subtitle: Russian / 39,837 kbps
* Subtitle: Swedish / 37,308 kbps

********************
PLAYLIST: 00123.MPLS
********************

<--- BEGIN FORUMS PASTE --->

Total Video
Title Codec Length Movie Size Disc Size Bitrate Bitrate Main Audio Track Secondary Audio Track
----- ------ ------- -------------- -------------- ------- ------- ------------------ ---------------------
00123.MPLS AVC 0:00:20 52 346 880 34 020 005 184 20,92 19,98

DISC INFO:

Disc Title: UNSANE_2018_EUR_BLUEBIRD
Disc Size: 34 020 005 184 bytes
Protection: AACS
BD-Java: Yes
BDInfo: 0.5.8

PLAYLIST REPORT:

Name: 00123.MPLS
Length: 0:00:20.020 (h:m:s.ms)
Size: 52 346 880 bytes
Total Bitrate: 20,92 Mbps

VIDEO:

Codec Bitrate Description
----- ------- -----------
MPEG-4 AVC Video 19976 kbps 1080p / 23,976 fps / 16:9 / High Profile 4.1

FILES:

Name Time In Length Size Total Bitrate
---- ------- ------ ---- -------------
00123.M2TS 0:00:00.000 0:00:20.020 52 346 880 20 918

CHAPTERS:

Number Time In Length Avg Video Rate Max 1-Sec Rate Max 1-Sec Time Max 5-Sec Rate Max 5-Sec Time Max 10Sec Rate Max 10Sec Time Avg Frame Size Max Frame Size Max Frame Time
------ ------- ------ -------------- -------------- -------------- -------------- -------------- -------------- -------------- -------------- -------------- --------------
1 0:00:00.000 0:00:20.020 19 975 kbps 26 248 kbps 00:00:00.542 22 319 kbps 00:00:13.805 21 691 kbps 00:00:08.800 104 143 bytes 539 250 bytes 00:00:11.010

STREAM DIAGNOSTICS:

File PID Type Codec Language Seconds Bitrate Bytes Packets
---- --- ---- ----- -------- -------------- -------------- ------------- -----
00123.M2TS 4113 (0x1011) 0x1B AVC 19,853 20 143 49 988 688 271 945

<---- END FORUMS PASTE ---->

QUICK SUMMARY:

Disc Title: UNSANE_2018_EUR_BLUEBIRD
Disc Size: 34 020 005 184 bytes
Protection: AACS
BD-Java: Yes
Playlist: 00123.MPLS
Size: 52 346 880 bytes
Length: 0:00:20.020
Total Bitrate: 20,92 Mbps
Video: MPEG-4 AVC Video / 19976 kbps / 1080p / 23,976 fps / 16:9 / High Profile 4.1

********************
PLAYLIST: 00125.MPLS
********************

<--- BEGIN FORUMS PASTE --->

Total Video
Title Codec Length Movie Size Disc Size Bitrate Bitrate Main Audio Track Secondary Audio Track
----- ------ ------- -------------- -------------- ------- ------- ------------------ ---------------------
00125.MPLS AVC 0:00:20 52 346 880 34 020 005 184 20,92 19,98

DISC INFO:

Disc Title: UNSANE_2018_EUR_BLUEBIRD
Disc Size: 34 020 005 184 bytes
Protection: AACS
BD-Java: Yes
BDInfo: 0.5.8

PLAYLIST REPORT:

Name: 00125.MPLS
Length: 0:00:20.020 (h:m:s.ms)
Size: 52 346 880 bytes
Total Bitrate: 20,92 Mbps

VIDEO:

Codec Bitrate Description
----- ------- -----------
MPEG-4 AVC Video 19976 kbps 1080p / 23,976 fps / 16:9 / High Profile 4.1

FILES:

Name Time In Length Size Total Bitrate
---- ------- ------ ---- -------------
00123.M2TS 0:00:00.000 0:00:20.020 52 346 880 20 918

CHAPTERS:

Number Time In Length Avg Video Rate Max 1-Sec Rate Max 1-Sec Time Max 5-Sec Rate Max 5-Sec Time Max 10Sec Rate Max 10Sec Time Avg Frame Size Max Frame Size Max Frame Time
------ ------- ------ -------------- -------------- -------------- -------------- -------------- -------------- -------------- -------------- -------------- --------------
1 0:00:00.000 0:00:20.020 19 975 kbps 26 248 kbps 00:00:00.542 22 319 kbps 00:00:13.805 21 691 kbps 00:00:08.800 104 143 bytes 539 250 bytes 00:00:11.010

STREAM DIAGNOSTICS:

File PID Type Codec Language Seconds Bitrate Bytes Packets
---- --- ---- ----- -------- -------------- -------------- ------------- -----
00123.M2TS 4113 (0x1011) 0x1B AVC 19,853 20 143 49 988 688 271 945

<---- END FORUMS PASTE ---->

QUICK SUMMARY:

Disc Title: UNSANE_2018_EUR_BLUEBIRD
Disc Size: 34 020 005 184 bytes
Protection: AACS
BD-Java: Yes
Playlist: 00125.MPLS
Size: 52 346 880 bytes
Length: 0:00:20.020
Total Bitrate: 20,92 Mbps
Video: MPEG-4 AVC Video / 19976 kbps / 1080p / 23,976 fps / 16:9 / High Profile 4.1
pb.wtf



Скачать Не в себе через торрент https://d.radikal.ru/d02/1807/63/8d8a45504fbf.jpg Скачать фильм Не в себе через торрент бесплантно в хорошем качестве Описание: Девушка покидает родной город, чтобы сбежать от проблемного прошлого и найти новую работу. Но когда она не по своей воле ... 10 10 2
Info! Золотая раздача, скачанное не засчитывается.
Торрент: Зарегистрирован [2018-07-29 17:44] · скачан: 15 раз
Статус: √ проверено
Размер: 31.68 GB
Как cкачать? Как скачать Не в себе через торрент | qTorrent

% Раздел Тема Автор DL S | L
Фильмы 2018 [DVDrip, WEB-DLRip, HDrip] (DUB, MVO) [ 1.46 GB ] Не в себе / Unsane [2018 BDRip] - [] Twi7ter Скачать
1 | 0

28-11-2019 20:33  

Отключить всю рекламу на сайте

    Дорогой пользователь! Огромная просьба, поблагодарите релизера, оцените раздачу и оставьте свои комментарий, если Вы скачали Не в себе через торрент бесплатно! Внесите свою лепту в развитие PiratBit!
    Комментировать посты могут только пользователи прошедшие не сложную регистрацию
    Показать сообщения:    

    Не в себе через торрент
    Скачать бесплатно Не в себе
    Не в себе скачать торрент
    Не в себе смотреть онлайн
    Cкачать фильм Не в себе бесплатно
    Не в себе скачать торрент в хорошем качестве
    Не в себе смотреть онлайн бесплатно в хорошем качестве


    Вы не можете начинать темы
    Вы не можете отвечать на сообщения
    Вы не можете редактировать свои сообщения
    Вы не можете удалять свои сообщения
    Вы не можете голосовать в опросах
    Вы не можете прикреплять файлы к сообщениям
    Вы можете скачивать файлы