Ссылка на приватное зеркало нашего сайта всего за 1$. Внимание количество ограничено!!!

2 сезон

iTunes

1 сезон

1

2 сезон

2 сезон

iTunes

1 сезон

RePack

30

Ultimate

ВАЖНО

ИГРА 18+

pack

RePack

MK11
pack

Забери бонус

RePack

jed

!!Акция!!

Alien_Rage

RePack

fifa19

RePack

Assassins Creed: Odyssey

RePack

NEED FOR SPEED™ PAYBACK

4 сезон

9 сезон

Бесстыжие 9 сезон

Все сериалы

все сериалы на PB.wtf

RePack

FAR CRY 5
  

Ход королевой / Knight Moves (Карл Шенкель) [1992, триллер, драма, криминал, детектив, BD Remux 1080p] DUB+2xMVO+3xMVO pb.wtf

Ход королевой через торрент pb.wtf

Размер: 31.1 GB | Добавлен: 2 года 3 мес. назад | Торрент скачан:6 раз
Скачать  

29-07-2018 19:51 Ход королевой Скачать торрент  

Ход королевой / Knight Moves
Год выпуска: 1992
Страна: Германия, Канада, США
Жанр: триллер, драма, криминал, детектив
Продолжительность: 01:56:25
Перевод:

Перевод 1: Профессиональный (дублированный) | Синхрон
Перевод 2: Профессиональный (многоголосый, закадровый) | R5
Перевод 3: Авторский (одноголосый, закадровый) | Сергей Визгунов
Перевод 4: Профессиональный (многоголосый, закадровый) | ОРТ
Перевод 5: Авторский (одноголосый, закадровый) | Леонид Володарский
Перевод 6: Авторский (одноголосый, закадровый) | Павел Прямостанов

Субтитры: английские

Режиссер: Карл Шенкель

rating

В ролях:

Кристофер Ламберт, Дайан Лэйн, Том Скерритт, Дэниэл Болдуин, Коди Лукас Уилби, Джош Мюррэй, Фрэнк Ч. Тернер, Дон Томпсон, Меган Лейтч, Алекс Дьякун, Ферди Мэйн, Кэтрин Изабель, Марк Уилсон, Блу Манкума, Моника Марко, Уолтер Марш, Артур Браусс

Описание:

Во время международного шахматного турнира, проводившегося на небольшом острове, кто-то убивает молодых женщин. Подозреваемым становится лидер турнира Питер Сэндерсон. Полиция пытается решить задачу не менее сложную, чем разыгрываемые партии. А убийца тем временем дразнит Сэндерсона, подсовывая с каждой жертвой загадки, которые чемпион должен расшифровать. Удастся ли гроссмейстеру предугадать ходы в этой партии? Ведь каждый неверный ход ведет к новому убийству.

Качество: BD Remux 1080p
Формат: MKV

Видео: MPEG-4 AVC, 34847 kbps, 1920х1080, 23.976 fps
Аудио#1: AC-3, 2 ch, 192 kbps | Синхрон
Аудио#2: AC-3, 2 ch, 192 kbps | R5
Аудио#3: AC-3, 6 ch, 448 kbps | Сергей Визгунов
Аудио#4: AC-3, 2 ch, 192 kbps | ОРТ
Аудио#5: AC-3, 2 ch, 192 kbps | Леонид Володарский
Аудио#6: AC-3, 2 ch, 192 kbps | Павел Прямостанов
Аудио#7: DTS-HD MA, 6 ch, 1988 kbps | English
скриншот  скриншот  скриншот  

Полное имя : Knight.Moves.1992.BDRemux.1080p.NovaLan.mkv
Формат : Matroska
Версия формата : Version 4 / Version 2
Размер файла : 31,1 Гбайт
Продолжительность : 1 ч. 56 м.
Режим общего битрейта : Переменный
Общий поток : 38,2 Мбит/сек
Название фильма : Knight Moves 1992 - NovaLan
Дата кодирования : UTC 2018-07-29 05:32:51
Программа кодирования : mkvmerge v6.9.1 ('Blue Panther') 64bit built on Apr 18 2014 18:23:38
Библиотека кодирования : libebml v1.3.0 + libmatroska v1.4.1

Видео
Идентификатор : 1
Формат : AVC
Формат/Информация : Advanced Video Codec
Профиль формата : High@L4.1
Параметр CABAC формата : Да
Параметр ReFrames формата : 3 кадра
Идентификатор кодека : V_MPEG4/ISO/AVC
Продолжительность : 1 ч. 56 м.
Вид битрейта : Переменный
Битрейт : 34,5 Мбит/сек
Максимальный битрейт : 36,0 Мбит/сек
Ширина : 1920 пикселей
Высота : 1080 пикселей
Соотношение сторон : 16:9
Частота кадров : 23,976 кадра/сек
Цветовое пространство : YUV
Субдискретизация насыщенности : 4:2:0
Битовая глубина : 8 бит
Тип развёртки : Прогрессивная
Бит/(Пиксели*Кадры) : 0.694
Размер потока : 28,1 Гбайт (90%)
Заголовок : Knight Moves 1992 - NovaLan
Default : Да
Forced : Нет
Основные цвета : BT.709-5, BT.1361, IEC 61966-2-4, SMPTE RP177
Характеристики трансфера : BT.709-5, BT.1361
Коэффициенты матрицы : BT.709-5, BT.1361, IEC 61966-2-4 709, SMPTE RP177

Аудио #1
Идентификатор : 2
Формат : AC-3
Формат/Информация : Audio Coding 3
Расширение режима : CM (complete main)
Параметр Endianness формата : Big
Идентификатор кодека : A_AC3
Продолжительность : 1 ч. 56 м.
Вид битрейта : Постоянный
Битрейт : 192 Кбит/сек
Каналы : 2 канала
Расположение каналов : Front: L R
Частота : 48,0 КГц
Битовая глубина : 16 бит
Метод сжатия : С потерями
Размер потока : 160 Мбайт (1%)
Язык : Russian
Default : Да
Forced : Нет

Аудио #2
Идентификатор : 3
Формат : AC-3
Формат/Информация : Audio Coding 3
Расширение режима : CM (complete main)
Параметр Endianness формата : Big
Идентификатор кодека : A_AC3
Продолжительность : 1 ч. 56 м.
Вид битрейта : Постоянный
Битрейт : 192 Кбит/сек
Каналы : 2 канала
Расположение каналов : Front: L R
Частота : 48,0 КГц
Битовая глубина : 16 бит
Метод сжатия : С потерями
Размер потока : 160 Мбайт (1%)
Язык : Russian
Default : Нет
Forced : Нет

Аудио #3
Идентификатор : 4
Формат : AC-3
Формат/Информация : Audio Coding 3
Расширение режима : CM (complete main)
Параметр Endianness формата : Big
Идентификатор кодека : A_AC3
Продолжительность : 1 ч. 56 м.
Вид битрейта : Постоянный
Битрейт : 448 Кбит/сек
Каналы : 6 каналов
Расположение каналов : Front: L C R, Side: L R, LFE
Частота : 48,0 КГц
Битовая глубина : 16 бит
Метод сжатия : С потерями
Размер потока : 373 Мбайт (1%)
Язык : Russian
Default : Нет
Forced : Нет

Аудио #4
Идентификатор : 5
Формат : AC-3
Формат/Информация : Audio Coding 3
Расширение режима : CM (complete main)
Параметр Endianness формата : Big
Идентификатор кодека : A_AC3
Продолжительность : 1 ч. 56 м.
Вид битрейта : Постоянный
Битрейт : 192 Кбит/сек
Каналы : 2 канала
Расположение каналов : Front: L R
Частота : 48,0 КГц
Битовая глубина : 16 бит
Метод сжатия : С потерями
Размер потока : 160 Мбайт (1%)
Язык : Russian
Default : Нет
Forced : Нет

Аудио #5
Идентификатор : 6
Формат : AC-3
Формат/Информация : Audio Coding 3
Расширение режима : CM (complete main)
Параметр Endianness формата : Big
Идентификатор кодека : A_AC3
Продолжительность : 1 ч. 56 м.
Вид битрейта : Постоянный
Битрейт : 192 Кбит/сек
Каналы : 2 канала
Расположение каналов : Front: L R
Частота : 48,0 КГц
Битовая глубина : 16 бит
Метод сжатия : С потерями
Размер потока : 160 Мбайт (1%)
Язык : Russian
Default : Нет
Forced : Нет

Аудио #6
Идентификатор : 7
Формат : AC-3
Формат/Информация : Audio Coding 3
Расширение режима : CM (complete main)
Параметр Endianness формата : Big
Идентификатор кодека : A_AC3
Продолжительность : 1 ч. 56 м.
Вид битрейта : Постоянный
Битрейт : 192 Кбит/сек
Каналы : 2 канала
Расположение каналов : Front: L R
Частота : 48,0 КГц
Битовая глубина : 16 бит
Метод сжатия : С потерями
Размер потока : 160 Мбайт (1%)
Язык : Russian
Default : Нет
Forced : Нет

Аудио #7
Идентификатор : 8
Формат : DTS
Формат/Информация : Digital Theater Systems
Профиль формата : MA / Core
Идентификатор кодека : A_DTS
Продолжительность : 1 ч. 56 м.
Вид битрейта : Переменный
Битрейт : 1561 Кбит/сек / 1510 Кбит/сек
Каналы : 6 каналов
Расположение каналов : Front: L C R, Side: L R, LFE
Частота : 48,0 КГц
Битовая глубина : 16 бит
Метод сжатия : Без потерь / Lossy
Язык : English
Default : Нет
Forced : Нет

Текст
Идентификатор : 9
Формат : UTF-8
Идентификатор кодека : S_TEXT/UTF8
Идентификатор кодека/Информация : UTF-8 Plain Text
Язык : English
Default : Нет
Forced : Нет

Меню
00:00:00.000 : en:Chapter 1
00:10:50.107 : en:Chapter 2
00:18:57.636 : en:Chapter 3
00:32:20.229 : en:Chapter 4
00:40:23.712 : en:Chapter 5
00:49:22.292 : en:Chapter 6
01:01:44.242 : en:Chapter 7
01:11:43.506 : en:Chapter 8
01:21:17.162 : en:Chapter 9
01:31:07.670 : en:Chapter 10
01:40:19.096 : en:Chapter 11
01:52:55.101 : en:Chapter 12
01:56:23.267 : en:Chapter 13

pb.wtf



Скачать Ход королевой через торрент https://img11.lostpic.net/2018/07/29/6200fc2c81b3ca35b6e497bfb420a0c3.jpg Скачать фильм Ход королевой через торрент бесплантно в хорошем качестве Описание: Во время международного шахматного турнира, проводившегося на небольшом острове, кто-то убивает молодых женщин. Подозреваемым ... 10 10 4
Info! Золотая раздача, скачанное не засчитывается.
Торрент: Зарегистрирован [2018-07-29 19:51] · скачан: 6 раз
Статус: √ проверено
Размер: 31.1 GB
Как cкачать? Как скачать Ход королевой через торрент | qTorrent

28-11-2019 20:33  

Отключить всю рекламу на сайте

    Дорогой пользователь! Огромная просьба, поблагодарите релизера, оцените раздачу и оставьте свои комментарий, если Вы скачали Ход королевой через торрент бесплатно! Внесите свою лепту в развитие PiratBit!
    Комментировать посты могут только пользователи прошедшие не сложную регистрацию
    Показать сообщения:    

    Ход королевой через торрент
    Скачать бесплатно Ход королевой
    Ход королевой скачать торрент
    Ход королевой смотреть онлайн
    Cкачать фильм Ход королевой бесплатно
    Ход королевой скачать торрент в хорошем качестве
    Ход королевой смотреть онлайн бесплатно в хорошем качестве


    Вы не можете начинать темы
    Вы не можете отвечать на сообщения
    Вы не можете редактировать свои сообщения
    Вы не можете удалять свои сообщения
    Вы не можете голосовать в опросах
    Вы не можете прикреплять файлы к сообщениям
    Вы можете скачивать файлы