Ссылка на приватное зеркало нашего сайта всего за 1$. Внимание количество ограничено!!!

2 сезон

iTunes

1 сезон

1

2 сезон

2 сезон

iTunes

1 сезон

RePack

30

Новинка

ВАЖНО

ИГРА 18+

pack

RePack

MK11
pack

Забери бонус

RePack

jed

!!Акция!!

Alien_Rage

RePack

fifa19

RePack

Assassins Creed: Odyssey

RePack

NEED FOR SPEED™ PAYBACK

4 сезон

9 сезон

Бесстыжие 9 сезон

Все сериалы

все сериалы на PB.wtf

RePack

FAR CRY 5
  

Киллджойс / Кайфоломы / Killjoys / Сезон: 4 / Серии: 1-9 из 13 (Стефан Плещински, Паоло Барзмен, Питер Стеббингс) [2018, фантастика, боевик, триллер, приключения., WEB-DLRip] MVO [LostFilm] pb.wtf

Киллджойс через торрент pb.wtf

Размер: 4.65 GB | Добавлен: 2 года 2 мес. назад | Торрент скачан:16 раз
Скачать  

30-07-2018 03:47 Киллджойс Скачать торрент  

Киллджойс / Кайфоломы / Killjoys Год выпуска: 2018
Страна: Канада
Жанр: фантастика, боевик, триллер, приключения.
Продолжительность: ~00:44:00 серия
Перевод: Профессиональный (многоголосый закадровый) | LostFilm
Субтитры: Отсутствуют

Режиссёр: Стефан Плещински, Паоло Барзмен, Питер Стеббингс.

В ролях:

Аарон Эшмор, Ханна Джон-Кэймен, Люк МакФарлейн, Роб Стюарт, Сара Пауэр, Том Эллисон (I), Тамсен МакДонаф, Нора МакЛеллан, Морган Келли, Фрэнк Мур, Шон Баек, Патрик Гэрроу, Мэйко Нгуйен, Аманда Таппинг, Данка Сцепанович.

Описание:

Килджои - это трио веселых межпланетных охотников за головами с непростой жизнью. Они клянутся оставаться справедливыми, выполняя смертельные задания в отдаленной звездной системе на грани кровавой, мультипланетарной классовой войны.

rating

Качество: WEB-DLRip
Формат: AVI

Видео: XviD, 720x400 (16:9), 23,976 fps, ~ 1800 kbps, 0.26 bit/pixel
Аудио 1: 48 kHz, AC3 Dolby Digital, 2/0 (L,R) ch, ~192 kbps
Аудио 2: 48 kHz, AC3 Dolby Digital, 2/0 (L,R) ch, ~192 kbps
Рип: Бёдвар
Format                      : AVI
Format/Info                 : Audio Video Interleave
File size                   : 679 MiB
Duration                    : 43mn 8s
Overall bit rate            : 2 199 Kbps
Director                    : Автор рипа: Бёдвар
Writing application         : VirtualDubMod 1.5.10.3 (build 2550/release)

Video
ID                          : 0
Format                      : MPEG-4 Visual
Format profile              : Simple@L5
Format settings, BVOP       : 1
Format settings, QPel       : No
Format settings, GMC        : No warppoints
Format settings, Matrix     : Default (MPEG)
Codec ID                    : XVID
Codec ID/Hint               : XviD
Duration                    : 43mn 8s
Bit rate                    : 1 801 Kbps
Width                       : 720 pixels
Height                      : 400 pixels
Display aspect ratio        : 16:9
Frame rate                  : 23.976 (24000/1001) fps
Color space                 : YUV
Chroma subsampling          : 4:2:0
Bit depth                   : 8 bits
Scan type                   : Progressive
Compression mode            : Lossy
Bits/(Pixel*Frame)          : 0.261
Stream size                 : 556 MiB (82%)
Writing library             : XviD 67

Audio #1
ID                          : 1
Format                      : AC-3
Format/Info                 : Audio Coding 3
Mode extension              : CM (complete main)
Format settings, Endianness : Big
Codec ID                    : 2000
Duration                    : 43mn 7s
Bit rate mode               : Constant
Bit rate                    : 192 Kbps
Channel(s)                  : 2 channels
Channel positions           : Front: L R
Sampling rate               : 48.0 KHz
Frame rate                  : 31.250 fps (1536 spf)
Compression mode            : Lossy
Stream size                 : 59.2 MiB (9%)
Alignment                   : Split accross interleaves
Interleave, duration        : 42 ms (1.00 video frame)
Interleave, preload duratio : 500 ms

Audio #2
ID                          : 2
Format                      : AC-3
Format/Info                 : Audio Coding 3
Mode extension              : CM (complete main)
Format settings, Endianness : Big
Codec ID                    : 2000
Duration                    : 43mn 8s
Bit rate mode               : Constant
Bit rate                    : 192 Kbps
Channel(s)                  : 2 channels
Channel positions           : Front: L R
Sampling rate               : 48.0 KHz
Frame rate                  : 31.250 fps (1536 spf)
Compression mode            : Lossy
Stream size                 : 59.2 MiB (9%)
Alignment                   : Split accross interleaves
Interleave, duration        : 42 ms (1.00 video frame)
Interleave, preload duratio : 500 ms
скриншот  скриншот  скриншот  скриншот  
Внимание! Раздача ведётся путём добавления новых серий; при каждом добавлении создаётся новый торрент. Чтобы начать докачку новой серии,пользователям необходимо сделать следующее:
(1) остановить скачивание,
(2) удалить старый торрент у себя из клиента (старые серии удалять не надо),
(3) скачать новый торрент и запустить его у себя в клиенте вместо старого, при этом указать клиенту путь в старую папку куда и должнопроисходить скачивание новых серий.

Ваш клиент при этом должен произвести хеширование (проверку) старой папки (если не производит сам - помогите ему сделать это), и будет докачивать только те серии которых у вас ещё нет. Старые серии при этом не удаляются, а продолжают раздаваться!

Eсли вы уже удалили старые серии, то предотвратить повторную закачку старых серий можно, отжав галочку в соответствующих местах при запуске нового торрента. По возможности, желательно не удалять старые серии как можно дольше чтобы релизёр не столько продолжал раздавать старые серии, а смог сконцентрироваться на новых.
pb.wtf



Скачать Киллджойс через торрент http://i5.imageban.ru/out/2018/07/21/0f13177c6cf915624af0c8707f29c225.jpg Скачать фильм Киллджойс через торрент бесплантно в хорошем качестве Описание: Килджои - это трио веселых межпланетных охотников за головами с непростой жизнью. Они клянутся оставаться справедливыми, выполняя ... 10 10 5
Торрент: Зарегистрирован [2018-09-16 20:04] · скачан: 16 раз
Статус: √ проверено
Размер: 4.65 GB
Как cкачать? Как скачать Киллджойс через торрент | qTorrent

28-11-2019 20:33  

Отключить всю рекламу на сайте

    Дорогой пользователь! Огромная просьба, поблагодарите релизера, оцените раздачу и оставьте свои комментарий, если Вы скачали Киллджойс через торрент бесплатно! Внесите свою лепту в развитие PiratBit!
    Комментировать посты могут только пользователи прошедшие не сложную регистрацию
    Показать сообщения:    

    Киллджойс через торрент
    Скачать бесплатно Киллджойс
    Киллджойс скачать торрент
    Киллджойс смотреть онлайн
    Cкачать фильм Киллджойс бесплатно
    Киллджойс скачать торрент в хорошем качестве
    Киллджойс смотреть онлайн бесплатно в хорошем качестве


    Вы не можете начинать темы
    Вы не можете отвечать на сообщения
    Вы не можете редактировать свои сообщения
    Вы не можете удалять свои сообщения
    Вы не можете голосовать в опросах
    Вы не можете прикреплять файлы к сообщениям
    Вы можете скачивать файлы