Ссылка на приватное зеркало всего за 1$. Внимание количество ограничено!!!

OK

1+1

iTunes

мы

OK

1

WEB-DLRip

Джокер

Пифагор

Ведьмак / The Witcher сериал

Лицензия

ПШазам

ОК

Оно 2

iTunes

30
pack

Вам бонус

ВАЖНО

!!Акция!!

Alien_RageХит недели

RePack

Resident Evil 21

ИГРА 18+

pack

RePack

jed

!!Акция!!

Alien_Rage

RePack

fifa19

RePack

Assassins Creed: Odyssey

RePack

NEED FOR SPEED™ PAYBACK

4 сезон

9 сезон

Бесстыжие 9 сезон

Все сериалы

все сериалы на PB.wtf

RePack

FAR CRY 5
  

Оставленные / The Leftovers / Сезон: 3 / Серии: 1-8 из 8 (Мими Ледер, Питер Берг) [2017, Фэнтези, драма, детектив, WEBRip 1080p] MVO [Amedia] pb.wtf

Оставленные через торрент pb.wtf

Раздают: 1 [ 676 KB/s ]
Размер: 56.03 GB | Добавлен: 1 год 5 мес. назад | Торрент скачан:14 раз
Скачать  

30-07-2018 11:17 Оставленные Скачать торрент  

Оставленные / The Leftovers Год выпуска: 2017
Страна: США
Жанр: Фэнтези, драма, детектив
Продолжительность: 00:55:00
Перевод: Профессиональный (многоголосый закадровый) | AmediaСубтитры: русские (амедиа), английские

Режиссёр: Мими Ледер, Питер Берг, Мишель Максвелл МакЛарен

В ролях:

Лив Тайлер, Фрэнк Хартс, Майкл Гэстон, Джастин Теру, Кэрри Кун, Маргарет Куэлли, Энни Цянь, Эми Бреннеман, Кристофер Экклстон, Энн Дауд и др.
Описание:

Третий, он же финальный, сезон мистической драмы от Дэймона Линделофа и Тома Перротты готовится раскрыть причину таинственного исчезновения миллионов людей. В центре сюжета семьи Гарви и Мерфи, которые объединяются в своем отчаянном стремлении сохранить хрупкую систему, объясняющую необъяснимое. В это время мир затаился в ожидании чего-то неотвратимого и глобального. Известно только одно: переживших Неожиданный Уход ждет путешествие в Австралию. В новом сезоне знакомые все лица – Джастин Теру, Эми Бреннеман, Кэрри Кун, Кевин Кэролл, Кристофер Экклстон, Лив Тайлер, Крис Зилка и другие.

rating скриншот  

Качество: WEBRip 1080p
Формат: MKV

Видео: 1920x1080 (16:9), 15743 kbps, 23,976 fps, 0,317 bpp
Аудио №1: русский / AC3 / 2.0 / 48 kHz / 192 kbps
Аудио №2: английский / AC3+ / 5.1 / 48 kHz / 640 kbps
1. Книга Кевина
2. Не говори глупости
3. Мысли белого психа
4. Здравствуй, Мельбурн
5. Этот безумный, безумный, безумный мир Мэтта
6. Лицензия
7. Самый сильный человек в мире (и его брат-близнец)
8. Книга Норы
General
Unique ID                                : 242993967691870319644347478404903807179 (0xB6CEEF951103E84A9C3165FF4A5928CB)
Complete name                            : Z:\The Leftovers (Season 03) 1080 AMZN\The.Leftovers.S03E01.1080p.WEBRip.Rus.Eng.mkv
Format                                   : Matroska
Format version                           : Version 4 / Version 2
File size                                : 7.38 GiB
Duration                                 : 1h 2mn
Overall bit rate                         : 16.9 Mbps
Encoded date                             : UTC 2017-07-03 23:18:39
Writing application                      : mkvmerge v12.0.0 ('Trust / Lust') 64bit
Writing library                          : libebml v1.3.4 + libmatroska v1.4.5
DURATION                                 : 01:00:27.125000000
NUMBER_OF_FRAMES                         : 814
NUMBER_OF_BYTES                          : 27065
_STATISTICS_WRITING_APP                  : mkvmerge v12.0.0 ('Trust / Lust') 64bit
_STATISTICS_WRITING_DATE_UTC             : 2017-07-03 23:18:39
_STATISTICS_TAGS                         : BPS DURATION NUMBER_OF_FRAMES NUMBER_OF_BYTES

Video
ID                                       : 1
Format                                   : AVC
Format/Info                              : Advanced Video Codec
Format profile                           : High@L4.1
Format settings, CABAC                   : Yes
Format settings, ReFrames                : 4 frames
Codec ID                                 : V_MPEG4/ISO/AVC
Duration                                 : 1h 2mn
Bit rate                                 : 15.7 Mbps
Width                                    : 1 920 pixels
Height                                   : 1 080 pixels
Display aspect ratio                     : 16:9
Frame rate                               : 23.976 fps
Color space                              : YUV
Chroma subsampling                       : 4:2:0
Bit depth                                : 8 bits
Scan type                                : Progressive
Bits/(Pixel*Frame)                       : 0.317
Stream size                              : 6.87 GiB (93%)
Writing library                          : x264 core 144 r2525 40bb568
Encoding settings                        : cabac=1 / ref=4 / deblock=1:-3:-3 / analyse=0x3:0x133 / me=umh / subme=10 / psy=1 / psy_rd=1.00:0.00 / mixed_ref=1 / me_range=48 / chroma_me=1 / trellis=2 / 8x8dct=1 / cqm=0 / deadzone=21,11 / fast_pskip=1 / chroma_qp_offset=-2 / threads=12 / lookahead_threads=2 / sliced_threads=0 / nr=0 / decimate=1 / interlaced=0 / bluray_compat=0 / constrained_intra=0 / bframes=8 / b_pyramid=2 / b_adapt=2 / b_bias=0 / direct=3 / weightb=1 / open_gop=0 / weightp=2 / keyint=250 / keyint_min=23 / scenecut=40 / intra_refresh=0 / rc=crf / mbtree=0 / crf=17.0 / qcomp=0.60 / qpmin=0 / qpmax=69 / qpstep=4 / ip_ratio=1.30 / pb_ratio=1.20 / aq=3:0.80
Language                                 : English
Default                                  : Yes
Forced                                   : No
DURATION                                 : 01:02:28.537000000
NUMBER_OF_FRAMES                         : 89875
NUMBER_OF_BYTES                          : 7533271558
_STATISTICS_WRITING_APP                  : mkvmerge v12.0.0 ('Trust / Lust') 64bit
_STATISTICS_WRITING_DATE_UTC             : 2017-07-03 23:18:39
_STATISTICS_TAGS                         : BPS DURATION NUMBER_OF_FRAMES NUMBER_OF_BYTES

Audio #1
ID                                       : 2
Format                                   : AC-3
Format/Info                              : Audio Coding 3
Mode extension                           : CM (complete main)
Codec ID                                 : A_AC3
Duration                                 : 1h 2mn
Bit rate mode                            : Constant
Bit rate                                 : 192 Kbps
Channel(s)                               : 2 channels
Channel positions                        : Front: L R
Sampling rate                            : 48.0 KHz
Bit depth                                : 16 bits
Compression mode                         : Lossy
Stream size                              : 85.8 MiB (1%)
Language                                 : Russian
Default                                  : Yes
Forced                                   : No

Audio #2
ID                                       : 3
Format                                   : E-AC-3
Format/Info                              : Audio Coding 3
Codec ID                                 : A_EAC3
Duration                                 : 1h 2mn
Bit rate mode                            : Constant
Bit rate                                 : 640 Kbps
Channel(s)                               : 6 channels
Channel positions                        : Front: L C R, Side: L R, LFE
Sampling rate                            : 48.0 KHz
Compression mode                         : Lossy
Stream size                              : 286 MiB (4%)
Language                                 : English
Default                                  : No
Forced                                   : No

Text #1
ID                                       : 4
Format                                   : UTF-8
Codec ID                                 : S_TEXT/UTF8
Codec ID/Info                            : UTF-8 Plain Text
Language                                 : Russian
Default                                  : No
Forced                                   : No

Text #2
ID                                       : 5
Format                                   : UTF-8
Codec ID                                 : S_TEXT/UTF8
Codec ID/Info                            : UTF-8 Plain Text
Language                                 : English
Default                                  : No
Forced                                   : No
скриншот  скриншот  скриншот  скриншот  скриншот  
pb.wtf



Скачать Оставленные через торрент http://img11.lostpic.net/2017/07/05/ea3dd736985ddc716cd24851943c2751.png Скачать фильм Оставленные через торрент бесплантно в хорошем качестве Описание: Третий, он же финальный, сезон мистической драмы от Дэймона Линделофа и Тома Перротты готовится раскрыть причину таинственного ... 10 10 2
Info! Золотая раздача, скачанное не засчитывается.
Торрент: Зарегистрирован [2018-07-30 11:17] · скачан: 14 раз
Статус: √ проверено
Размер: 56.03 GB
Как cкачать? Как скачать Оставленные через торрент | qTorrent

% Раздел Тема Автор DL S | L
Зарубежные сериалы [ 9.15 GB ] Оставленные / Остатки / The Leftovers / Сезон: 3 / Серии 1-8 из 8 [2017 WEB-DLRip-AVC] MVO [NewStudio] GEKADOL Скачать
1 | 0
Зарубежные сериалы [ 5.18 GB ] Оставленные / The Leftovers / 3 сезон / Серии 1-8 из 8 [2017 HDTVRip] MVO [Амедиа] bober100 Скачать
1 | 0

28-11-2019 20:33  

Отключить всю рекламу на сайте

    Дорогой пользователь! Огромная просьба, поблагодарите релизера, оцените раздачу и оставьте свои комментарий, если Вы скачали Оставленные через торрент бесплатно! Внесите свою лепту в развитие PiratBit!
    Комментировать посты могут только пользователи прошедшие не сложную регистрацию
    Показать сообщения:    

    Оставленные через торрент
    Скачать бесплатно Оставленные
    Оставленные скачать торрент
    Оставленные смотреть онлайн
    Cкачать фильм Оставленные бесплатно
    Оставленные скачать торрент в хорошем качестве
    Оставленные смотреть онлайн бесплатно в хорошем качестве


    Вы не можете начинать темы
    Вы не можете отвечать на сообщения
    Вы не можете редактировать свои сообщения
    Вы не можете удалять свои сообщения
    Вы не можете голосовать в опросах
    Вы не можете прикреплять файлы к сообщениям
    Вы можете скачивать файлы