Ссылка на приватное зеркало нашего сайта всего за 1$. Внимание количество ограничено!!!

2 сезон

iTunes

1 сезон

1

2 сезон

2 сезон

iTunes

1 сезон

RePack

30

Ultimate

ВАЖНО

ИГРА 18+

pack

RePack

MK11
pack

Забери бонус

RePack

jed

!!Акция!!

Alien_Rage

RePack

fifa19

RePack

Assassins Creed: Odyssey

RePack

NEED FOR SPEED™ PAYBACK

4 сезон

9 сезон

Бесстыжие 9 сезон

Все сериалы

все сериалы на PB.wtf

RePack

FAR CRY 5
  

Американские боги / American Gods / Сезон: 1 / Серии 1-8 из 8 (Дэвид Слэйд) [2017, фэнтези, детектив, драма, WEBRip 1080p] [MVO] (FilmsClub) pb.wtf

Американские боги через торрент pb.wtf

Размер: 33.18 GB | Добавлен: 2 года 3 мес. назад | Торрент скачан:16 раз
Скачать  

30-07-2018 13:11 Американские боги Скачать торрент  

Американские богиAmerican Gods

Год выпуска: 2017
Страна: США
Жанр: Фэнтези, детектив
Продолжительность: 8 x ~ 01:00:00
Перевод: Профессиональный (многоголосый закадровый) | *FilmsClub*
Субтитры: английские

Режиссёр: Дэвид Слэйд, Адам Кэйн, Винченцо Натали

В ролях: Рики Уиттл, Иэн МакШейн, Эмили Браунинг, Пабло Шрайбер, Брюс Лэнгли, Джонатан Такер, Джиллиан Андерсон, Клорис Личмен

Описание: Тень — человек с прошлым. Но теперь единственное, чего он хочет — это жить тихой и спокойной жизнью со своей женой в стороне от проблем. Пока он не узнает о ее гибели в результате несчастного случая. По пути на похороны домой, когда сильнейший шторм сотрясает самолет, ему представляется странный человек с соседнего кресла. Он называет себя мистер Среда. И он знает о Тени больше, чем кажется возможным. Он предупреждает Тень, что грядет ещё больший шторм. И ничто с этого момента, включая его самого, не будет таким, как прежде.

rating

Качество: WEBRip 1080p
Формат: MKV
Видео: MPEG-4 AVC, ~ 10000 Кбит/с, 1920x1080, 23.976 fps
Аудио Rus: AC3, 48 kHz, 6 ch, 384 kbps
Аудио Eng: E-AC3, 48 kHz, 6 ch, 640 kbps
General
Unique ID : 293403390205955907399225314801160158331 (0xDCBB6FFFE2719BB3D066E4D4B685FC7B)
Complete name : E:\American.Gods.S01.1080p-films.club\American.Gods.S01E01.1080p.WEBRip.DD+5.1.x264-films.club.mkv
Format : Matroska
Format version : Version 4 / Version 2
File size : 4.84 GiB
Duration : 1 h 2 min
Overall bit rate : 11.0 Mb/s
Encoded date : UTC 2018-07-13 20:55:43
Writing application : mkvmerge v24.0.0 ('Beyond The Pale') 64-bit
Writing library : libebml v1.3.6 + libmatroska v1.4.9

Video
ID : 1
Format : AVC
Format/Info : Advanced Video Codec
Format profile : High@L4.1
Format settings : CABAC / 4 Ref Frames
Format settings, CABAC : Yes
Format settings, RefFrames : 4 frames
Codec ID : V_MPEG4/ISO/AVC
Duration : 1 h 2 min
Bit rate : 9 788 kb/s
Width : 1 920 pixels
Height : 1 080 pixels
Display aspect ratio : 16:9
Frame rate mode : Constant
Frame rate : 23.976 (24000/1001) FPS
Color space : YUV
Chroma subsampling : 4:2:0
Bit depth : 8 bits
Scan type : Progressive
Bits/(Pixel*Frame) : 0.197
Stream size : 4.29 GiB (89%)
Writing library : x264 core 148 r2744kMod b97ae06
Encoding settings : cabac=1 / ref=4 / deblock=1:-3:-3 / analyse=0x3:0x133 / me=umh / subme=11 / psy=1 / fade_compensate=0.00 / psy_rd=1.00:0.00 / mixed_ref=1 / me_range=32 / chroma_me=1 / trellis=2 / 8x8dct=1 / cqm=0 / deadzone=21,11 / fast_pskip=0 / chroma_qp_offset=-2 / threads=12 / lookahead_threads=2 / sliced_threads=0 / nr=0 / decimate=0 / interlaced=0 / bluray_compat=0 / constrained_intra=0 / bframes=8 / b_pyramid=2 / b_adapt=2 / b_bias=0 / direct=3 / weightb=1 / open_gop=0 / weightp=2 / keyint=250 / keyint_min=23 / scenecut=40 / intra_refresh=0 / rc=crf / mbtree=0 / crf=18.0000 / qcomp=0.65 / qpmin=0 / qpmax=69 / qpstep=4 / ip_ratio=1.30 / pb_ratio=1.20 / aq=3:0.80
Language : English
Default : Yes
Forced : No

Audio #1
ID : 2
Format : AC-3
Format/Info : Audio Coding 3
Format settings, Endianness : Big
Codec ID : A_AC3
Duration : 1 h 2 min
Bit rate mode : Constant
Bit rate : 384 kb/s
Channel(s) : 6 channels
Channel positions : Front: L C R, Side: L R, LFE
Sampling rate : 48.0 kHz
Frame rate : 31.250 FPS (1536 SPF)
Bit depth : 16 bits
Compression mode : Lossy
Stream size : 173 MiB (3%)
Title : films.club
Service kind : Complete Main
Default : No
Forced : No

Audio #2
ID : 3
Format : E-AC-3
Format/Info : Enhanced Audio Coding 3
Format settings, Endianness : Big
Codec ID : A_EAC3
Duration : 1 h 2 min
Bit rate mode : Constant
Bit rate : 640 kb/s
Channel(s) : 6 channels
Channel positions : Front: L C R, Side: L R, LFE
Sampling rate : 48.0 kHz
Frame rate : 187.500 FPS (256 SPF)
Compression mode : Lossy
Stream size : 288 MiB (6%)
Title : Original
Language : English
Service kind : Complete Main
Default : No
Forced : No

Text
ID : 4
Format : UTF-8
Codec ID : S_TEXT/UTF8
Codec ID/Info : UTF-8 Plain Text
Title : English
Language : English
Default : No
Forced : No
скриншот  скриншот  скриншот  
pb.wtf



Скачать Американские боги через торрент http://i89.fastpic.ru/big/2017/0501/c7/b98a997b677dc35cfe43383b046883c7.jpg Скачать фильм Американские боги через торрент бесплантно в хорошем качестве Описание: Тень — человек с прошлым. Но теперь единственное, чего он хочет — это жить тихой и спокойной жизнью со своей женой в стороне от ... 8.2 10 5
Торрент: Зарегистрирован [2018-07-30 13:11] · скачан: 16 раз
Статус: √ проверено
Размер: 33.18 GB
Как cкачать? Как скачать Американские боги через торрент | qTorrent

% Раздел Тема Автор DL S | L
Зарубежные сериалы [ 29.13 GB ] Американские боги / American Gods / Сезон: 2 / Серии: 1-8 из 8 [2019 WEBRip 1080p] DVO [Кубик в Кубе] bober100 Скачать
1 | 0
Зарубежные сериалы [ 5.29 GB ] Американские боги / American Gods / Сезон: 2 / Серии: 1-8 из 8 [2019 WEB-DLRip] MVO [Alexfilm] bober100 Скачать
1 | 0
Зарубежные сериалы [ 5.24 GB ] Американские боги / American Gods / Сезон: 2 / Серии: 1-8 из 8 [2019 WEBRip] MVO [LostFilm] bober100 Скачать
1 | 0
Зарубежные сериалы [ 28.94 GB ] Американские боги / American Gods / Сезон: 2 / Серии: 1-8 из 8 [2019 WEB-DL 1080p] MVO [AlexFilm] bober100 Скачать
2 | 0
Зарубежные сериалы [ 29.72 GB ] Американские боги / American Gods / Сезон 2 / Серии 1-8 из 8 [2019 WEB-DL 1080p] killermax2013 Скачать
1 | 0
Зарубежные сериалы [ 7.16 GB ] Американские боги / American Gods / Сезон 2 / Серии 1-8 из 8 [2019 WEB-DLRip] [MVO] killermax2013 Скачать
1 | 0
Зарубежные сериалы [ 17.33 GB ] Американские боги / American Gods / Сезон: 2 / Серии: 1-8 из 8 [2019 WEB-DL 720p] 3x[MVO] killermax2013 Скачать
1 | 0

28-11-2019 20:33  

Отключить всю рекламу на сайте

    Дорогой пользователь! Огромная просьба, поблагодарите релизера, оцените раздачу и оставьте свои комментарий, если Вы скачали Американские боги через торрент бесплатно! Внесите свою лепту в развитие PiratBit!
    Комментировать посты могут только пользователи прошедшие не сложную регистрацию
    Показать сообщения:    

    Американские боги через торрент
    Скачать бесплатно Американские боги
    Американские боги скачать торрент
    Американские боги смотреть онлайн
    Cкачать фильм Американские боги бесплатно
    Американские боги скачать торрент в хорошем качестве
    Американские боги смотреть онлайн бесплатно в хорошем качестве


    Вы не можете начинать темы
    Вы не можете отвечать на сообщения
    Вы не можете редактировать свои сообщения
    Вы не можете удалять свои сообщения
    Вы не можете голосовать в опросах
    Вы не можете прикреплять файлы к сообщениям
    Вы можете скачивать файлы