Ссылка на приватное зеркало нашего сайта всего за 1$. Внимание количество ограничено!!!

2 сезон

iTunes

1 сезон

1

2 сезон

2 сезон

iTunes

1 сезон

RePack

30

Ultimate

ВАЖНО

ИГРА 18+

pack

RePack

MK11
pack

Забери бонус

RePack

jed

!!Акция!!

Alien_Rage

RePack

fifa19

RePack

Assassins Creed: Odyssey

RePack

NEED FOR SPEED™ PAYBACK

4 сезон

9 сезон

Бесстыжие 9 сезон

Все сериалы

все сериалы на PB.wtf

RePack

FAR CRY 5
  

Касл-Рок / Castle Rock / Сезон: 1 / Серии: 1-10 из 10 (Майкл Аппендаль) [2018, ужасы, фэнтези, триллер, драма, детектив, WEB-DL 1080p] MVO [Jaskier] pb.wtf

Касл-Рок через торрент pb.wtf

Размер: 13.33 GB | Добавлен: 2 года 2 мес. назад | Торрент скачан:64 раза
Скачать  

30-07-2018 15:56 Касл-Рок Скачать торрент  

Касл-Рок / Castle Rock

Год выпуска: 2018
Страна: США
Жанр: ужасы, фэнтези, триллер, драма, детектив
Продолжительность: ~ 00:55:00
Перевод: Профессиональный (многоголосый закадровый) | Jaskier [БЕЗ ЦЕНЗУРЫ]
Субтитры: отсутствуют

Режиссёр: Майкл Аппендаль, Дэниэл Эттиэс, Кевин Хукс

В ролях:

Мелани Лински, Скотт Гленн, Андре Холланд, Джейн Леви, Терри О`Куинн, Билл Скарсгард, Сисси Спейсек, Калил Харрис, Чоузен Джейкобс, Эрик Шарп

Описание:

Начальник тюрьмы Шоушенк совершает самоубийство, и после его смерти в закрытом крыле здания находят странного юношу. Никто не знает, кто это, а сам он называет только имя адвоката Генри Дивера, который вырос в Касл-Роке. Дивер возвращается в город, где когда-то трагически погиб его отец, и пытается выяснить историю загадочного заключенного.



Качество: WEB-DL 1080p
Формат: MKV

Видео: X264, ~ 3500 kbps, 1920x1080 (16:9), 23.976 fps
Аудио 1: AC3, 48,0 КГц, 2 ch, 192 kbps - Rus
Аудио 2: AC3, 48,0 КГц, 2 ch, 192 kbps - Eng


Реклама: аудио, два раза в начале и в конце по 13 секунд
Общее
Уникальный идентификатор                 : 201042503558695158331030230815585213206 (0x973F60B585FBB510812F09869C461B16)
Формат                                   : Matroska
Версия формата                           : Version 2
Размер файла                             : 1,51 Гбайт
Продолжительность                        : 54 м.
Общий поток                              : 3976 Кбит/сек
Дата кодирования                         : UTC 2018-07-30 14:26:49
Программа кодирования                    : mkvmerge v7.8.0 ('River Man') 32bit built on Apr  3 2015 12:11:22
Библиотека кодирования                   : libebml v1.3.1 + libmatroska v1.4.2

Видео
Идентификатор                            : 1
Формат                                   : AVC
Формат/Информация                        : Advanced Video Codec
Профиль формата                          : High@L4
Параметр CABAC формата                   : Да
Параметр ReFrames формата                : 4 кадра
Идентификатор кодека                     : V_MPEG4/ISO/AVC
Продолжительность                        : 54 м.
Битрейт                                  : 3513 Кбит/сек
Ширина                                   : 1920 пикселей
Высота                                   : 1080 пикселей
Соотношение сторон                       : 16:9
Режим частоты кадров                     : Постоянный
Частота кадров                           : 23,976 (24000/1001) кадра/сек
Цветовое пространство                    : YUV
Субдискретизация насыщенности            : 4:2:0
Битовая глубина                          : 8 бит
Тип развёртки                            : Прогрессивная
Бит/(Пиксели*Кадры)                      : 0.071
Размер потока                            : 1,34 Гбайт (88%)
Default                                  : Да
Forced                                   : Нет

Аудио #1
Идентификатор                            : 2
Формат                                   : AC-3
Формат/Информация                        : Audio Coding 3
Расширение режима                        : CM (complete main)
Параметр Endianness формата              : Big
Идентификатор кодека                     : A_AC3
Продолжительность                        : 54 м.
Вид битрейта                             : Постоянный
Битрейт                                  : 192 Кбит/сек
Каналы                                   : 2 канала
Расположение каналов                     : Front: L R
Частота                                  : 48,0 КГц
Частота кадров                           : 31,250 кадров/сек (1536 spf)
Метод сжатия                             : С потерями
Размер потока                            : 74,9 Мбайт (5%)
Заголовок                                : Jaskier
Язык                                     : Russian
Default                                  : Да
Forced                                   : Нет

Аудио #2
Идентификатор                            : 3
Формат                                   : AC-3
Формат/Информация                        : Audio Coding 3
Расширение режима                        : CM (complete main)
Параметр Endianness формата              : Big
Идентификатор кодека                     : A_AC3
Продолжительность                        : 54 м.
Вид битрейта                             : Постоянный
Битрейт                                  : 192 Кбит/сек
Каналы                                   : 2 канала
Расположение каналов                     : Front: L R
Частота                                  : 48,0 КГц
Частота кадров                           : 31,250 кадров/сек (1536 spf)
Метод сжатия                             : С потерями
Размер потока                            : 74,9 Мбайт (5%)
Язык                                     : English
Default                                  : Нет
Forced                                   : Нет
скриншот  скриншот  скриншот  
Когда раздача ведётся путём добавления новых серий, при каждом добавлении создётся новый торрент. Чтобы начать докачку новой серии, пользователям необходимо сделать следующее:
(1) остановить скачивание,
(2) удалить старый торрент у себя из клиента (старые серии удалять не надо),
(3) скачать новый торрент и запустить его у себя в клиенте вместо старого, при этом указать клиенту путь в старую папку, куда и должно происходить скачивание новых серий.
Ваш клиент при этом должен произвести хеширование (проверку) старой папки (если не производит сам - помогите ему сделать это), и будет докачивать только те серии, которых у вас ещё нет. Старые серии при этом не удаляются, а продолжают раздаваться!
Eсли вы уже удалили старые серии, то предотвратить повторную закачку старых серий можно, отжав галочку в соответсвующих местах при запуске нового торрента. По возможности, желательно не удалять старые серии как можно дольше, чтобы релизёр не столько продолжал раздавать старые серии, а смог сконцентрироваться на новых.
pb.wtf



Скачать Касл-Рок через торрент http://i105.fastpic.ru/big/2018/0728/63/34726cfb46c1c75db7796a9494b78163.png Скачать фильм Касл-Рок через торрент бесплантно в хорошем качестве Описание: Начальник тюрьмы Шоушенк совершает самоубийство, и после его смерти в закрытом крыле здания находят странного юношу. Никто не ... 9 10 8
Info! Золотая раздача, скачанное не засчитывается.
Торрент: Зарегистрирован [2018-09-17 08:23] · скачан: 64 раз
Статус: √ проверено
Размер: 13.33 GB
Как cкачать? Как скачать Касл-Рок через торрент | qTorrent

% Раздел Тема Автор DL S | L
Зарубежные сериалы [ 7.15 GB ] Касл-Рок / Castle Rock / Сезон: 2 / Серии: 1-10 из 10 [2019 WEB-DL 720p] MVO [TVShows] bober100 Скачать
2 | 0
Зарубежные сериалы [ 6.76 GB ] Касл-Рок / Castle Rock / Сезон: 2 / Серии: 1-10 из 10 [2019 WEB-DLRip] MVO [LostFilm] bober100 Скачать
1 | 0
Зарубежные сериалы [ 6.5 GB ] Касл-Рок / Castle Rock / Сезон: 2 / Серии: 1-10 из 10 [2019 WEB-DL 720p] MVO [Novamedia] bober100 Скачать
1 | 0
Зарубежные сериалы [ 54.88 GB ] Касл-Рок / Castle Rock / Сезон: 2 / Серии: 1-10 из 10 [2019 UHD WEB-DL 2160p] 4xMVO [LostFilm AlexFilm TVShows Jaskier] bober100 Скачать
1 | 0
Зарубежные сериалы [ 10.83 GB ] Касл-Рок / Castle Rock / Сезон: 2 / Серии: 1-10 из 10 [2019 WEBRip 720p] 3xMVO [AlexFilm TVShows Jaskier] bober100 Скачать
1 | 0
Зарубежные сериалы [ 13.11 GB ] Касл-Рок / Castle Rock / Сезон: 2 / Серии: 1-10 из 10 [2019 WEBRip 1080p] MVO [Novamedia] bober100 Скачать
1 | 3
Зарубежные сериалы [ 13.76 GB ] Касл-Рок / Castle Rock / Сезон: 2 / Серии: 1-10 из 10 [2019 WEB-DL 1080p] MVO [TVShows] bober100 Скачать
3 | 0

28-11-2019 20:33  

Отключить всю рекламу на сайте

    Дорогой пользователь! Огромная просьба, поблагодарите релизера, оцените раздачу и оставьте свои комментарий, если Вы скачали Касл-Рок через торрент бесплатно! Внесите свою лепту в развитие PiratBit!
    Комментировать посты могут только пользователи прошедшие не сложную регистрацию
    Показать сообщения:    

    Касл-Рок через торрент
    Скачать бесплатно Касл-Рок
    Касл-Рок скачать торрент
    Касл-Рок смотреть онлайн
    Cкачать фильм Касл-Рок бесплатно
    Касл-Рок скачать торрент в хорошем качестве
    Касл-Рок смотреть онлайн бесплатно в хорошем качестве


    Вы не можете начинать темы
    Вы не можете отвечать на сообщения
    Вы не можете редактировать свои сообщения
    Вы не можете удалять свои сообщения
    Вы не можете голосовать в опросах
    Вы не можете прикреплять файлы к сообщениям
    Вы можете скачивать файлы