Ссылка на приватное зеркало нашего сайта всего за 1$. Внимание количество ограничено!!!

2 сезон

iTunes

1 сезон

1

2 сезон

2 сезон

iTunes

1 сезон

RePack

30

Ultimate

ВАЖНО

ИГРА 18+

pack

RePack

MK11
pack

Забери бонус

RePack

jed

!!Акция!!

Alien_Rage

RePack

fifa19

RePack

Assassins Creed: Odyssey

RePack

NEED FOR SPEED™ PAYBACK

4 сезон

9 сезон

Бесстыжие 9 сезон

Все сериалы

все сериалы на PB.wtf

RePack

FAR CRY 5
  

Оккупация / Occupation (Люк Спарк) [2018, Фантастика, боевик, WEB-DL 720p] [AMZN Version] MVO [HDRezka Studio] pb.wtf

Оккупация через торрент pb.wtf

Размер: 3.21 GB | Добавлен: 2 года 4 мес. назад | Торрент скачан:258 раз
Скачать  

31-07-2018 03:46 Оккупация Скачать торрент  

Оккупация / Occupation
Год выпуска: 2018
Страна: Австралия
Жанр: Фантастика, боевик
Продолжительность: 01:59:57
Перевод: Профессиональный (многоголосый) | HDRezka Studio
Субтитры: Английские (SDH)

Режиссер: Люк Спарк

rating

В ролях:

Дэниэл Юинг, Темуэра Моррисон, Стефани Джейкобсен, Рианнон Фиш, Захари Гарред, Иззи Стивенс, Чарльз Терьер, Чарльз Межер, Феликс Уильямсон, Жаклин МакКензи

Описание:

Небольшая группа жителей города, которая выжила после разрушительного внеземного вторжения, должна объединиться, чтобы нанести ответный удар по врагам.

Качество: WEB-DL 720p | AMZN Version
Формат: MKV

Видео: 1280x544 (2.35:1), 23,976 fps, x264 ~3 002 kbps avg, 0.180 bit/pixel
Аудио#1: 48 kHz, AC3 Dolby Digital, 2 (L,R) ch, ~192.00 kbps avg | RUS (HDRezka Studio)
Аудио#2: 48 kHz, E-AC3 Dolby Digital Plus, 3/2 (L,C,R,l,r) + LFE ch, ~640.00 kbps avg | ENG
скриншот  скриншот  скриншот  скриншот  скриншот  

Общее
Уникальный идентификатор : 30719832186349754811565870871822697843 (0x171C6CAA0737016ED71A16F759C78573)
Полное имя : F:OlLanDGroupOccupation.2018.WEB-DL(720p).OlLanDGroup.mkv
Формат : Matroska
Версия формата : Version 4 / Version 2
Размер файла : 3,21 Гбайт
Продолжительность : 1 ч. 59 м.
Общий поток : 3836 Кбит/сек
Название фильма : Occupation.2018 #TorpedoUK#
Дата кодирования : UTC 2018-07-31 01:59:09
Программа кодирования : mkvmerge v25.0.0 ('Prog Noir') 64-bit
Библиотека кодирования : libebml v1.3.6 + libmatroska v1.4.9

Видео
Идентификатор : 1
Формат : AVC
Формат/Информация : Advanced Video Codec
Профиль формата : High@L3.1
Параметр CABAC формата : Да
Параметр ReFrames формата : 5 кадров
Идентификатор кодека : V_MPEG4/ISO/AVC
Продолжительность : 1 ч. 59 м.
Битрейт : 3002 Кбит/сек
Ширина : 1280 пикселей
Высота : 544 пикселя
Соотношение сторон : 2,35:1
Соотношение сторон в оригинале : 2,35:1
Режим частоты кадров : Постоянный
Частота кадров : 23,976 (24000/1001) кадра/сек
Цветовое пространство : YUV
Субдискретизация насыщенности : 4:2:0
Битовая глубина : 8 бит
Тип развёртки : Прогрессивная
Бит/(Пиксели*Кадры) : 0.180
Размер потока : 2,52 Гбайт (78%)
Default : Да
Forced : Нет
Цветовой диапазон : Limited
Основные цвета : BT.709
Характеристики трансфера : BT.709
Коэффициенты матрицы : BT.709

Аудио #1
Идентификатор : 2
Формат : AC-3
Формат/Информация : Audio Coding 3
Расширение режима : CM (complete main)
Параметр Endianness формата : Big
Идентификатор кодека : A_AC3
Продолжительность : 1 ч. 59 м.
Вид битрейта : Постоянный
Битрейт : 192 Кбит/сек
Каналы : 2 канала
Расположение каналов : Front: L R
Частота : 48,0 КГц
Частота кадров : 31,250 кадров/сек (1536 spf)
Битовая глубина : 16 бит
Метод сжатия : С потерями
Размер потока : 165 Мбайт (5%)
Заголовок : MVO [HDRezka Studio]
Язык : Russian
Default : Да
Forced : Нет

Аудио #2
Идентификатор : 3
Формат : E-AC-3
Формат/Информация : Enhanced Audio Coding 3
Параметр Endianness формата : Big
Идентификатор кодека : A_EAC3
Продолжительность : 1 ч. 59 м.
Вид битрейта : Постоянный
Битрейт : 640 Кбит/сек
Каналы : 6 каналов
Расположение каналов : Front: L C R, Side: L R, LFE
Частота : 48,0 КГц
Частота кадров : 187,500 кадров/сек (256 spf)
Метод сжатия : С потерями
Размер потока : 549 Мбайт (17%)
Заголовок : Original
Язык : English
Default : Нет
Forced : Нет

Текст
Идентификатор : 4
Формат : UTF-8
Идентификатор кодека : S_TEXT/UTF8
Идентификатор кодека/Информация : UTF-8 Plain Text
Продолжительность : 1 ч. 56 м.
Битрейт : 54 бит/сек
Count of elements : 1447
Размер потока : 46,3 Кбайт (0%)
Заголовок : SDH
Язык : English
Default : Нет
Forced : Нет

pb.wtf



Скачать Оккупация через торрент http://img11.lostpic.net/2018/07/31/fa71ac6fb1082be55d2b7df80fef5cff.jpg Скачать фильм Оккупация через торрент бесплантно в хорошем качестве Описание: Небольшая группа жителей города, которая выжила после разрушительного внеземного вторжения, должна объединиться, чтобы нанести ... 8.8 10 8
Торрент: Зарегистрирован [2018-07-31 03:46] · скачан: 258 раз
Статус: T временная
Размер: 3.21 GB
Как cкачать? Как скачать Оккупация через торрент | qTorrent

% Раздел Тема Автор DL S | L
Фильмы 2018 [DVDrip, WEB-DLRip, HDrip] (DUB, MVO) [ 1.46 GB ] Оккупация / Occupation [2018 BDRip] - Twi7ter Скачать
5 | 0
Фильмы [HD 720p, 1080p] (Хороший звук DUB, MVO) [ 6.87 GB ] Оккупация / Occupation [2018 BDRip 720p] MVO [HDRezka Studio] bober100 Скачать
1 | 0
T Фильмы [HD 720p, 1080p] (Хороший звук DUB, MVO) [ 8.43 GB ] Оккупация / Occupation [2018 BDRip 1080p] MVO [HDRezka Studio] bober100 Скачать
1 | 0
T Фильмы 2018 [DVDrip, WEB-DLRip, HDrip] (DUB, MVO) [ 1.46 GB ] Оккупация / Occupation [2018 BDRip] MVO [HDRezka Studio] bober100 Скачать
1 | 0
T Фильмы 2018 [DVDrip, WEB-DLRip, HDrip] (DUB, MVO) [ 2.23 GB ] Оккупация / Occupation [2018 WEB-DLRip-AVC] MVO [HDRezka Studio] bober100 Скачать
1 | 0
T Фильмы (WEB-DL 720p, 1080p) [ 7.1 GB ] Оккупация / Occupation [2018 WEB-DL 1080p] [AMZN Version] MVO [HDRezka Studio] bober100 Скачать
1 | 0
Документальные фильмы и телепередачи [ 1.29 GB ] ОККУПАЦИЯ 101 / OCCUPATION 101 [2006 документальный HDRip VO] metanoia Скачать
1 | 0

28-11-2019 20:33  

Отключить всю рекламу на сайте

31-07-2018 21:06 Оккупация Скачать торрент  

последний скрин порадовалpb.wtf



01-08-2018 00:16 Оккупация Скачать торрент  

Ну реально, уберите последний скрин, а то кача не будет )pb.wtf



01-08-2018 09:24 Оккупация Скачать торрент  

RST писал(а):

Ну реально, уберите последний скрин, а то кача не будет )

pb.wtf



    Дорогой пользователь! Огромная просьба, поблагодарите релизера, оцените раздачу и оставьте свои комментарий, если Вы скачали Оккупация через торрент бесплатно! Внесите свою лепту в развитие PiratBit!
    Комментировать посты могут только пользователи прошедшие не сложную регистрацию
    Показать сообщения:    

    Оккупация через торрент
    Скачать бесплатно Оккупация
    Оккупация скачать торрент
    Оккупация смотреть онлайн
    Cкачать фильм Оккупация бесплатно
    Оккупация скачать торрент в хорошем качестве
    Оккупация смотреть онлайн бесплатно в хорошем качестве


    Вы не можете начинать темы
    Вы не можете отвечать на сообщения
    Вы не можете редактировать свои сообщения
    Вы не можете удалять свои сообщения
    Вы не можете голосовать в опросах
    Вы не можете прикреплять файлы к сообщениям
    Вы можете скачивать файлы