Ссылка на приватное зеркало нашего сайта всего за 1$. Внимание количество ограничено!!!

2 сезон

iTunes

1 сезон

1

iTunes

iTunes

iTunes

1 сезон

RePack

30

ИГРА 18+

pack

ВАЖНО

!!Акция!!

Alien_RageХит недели

RePack

MK11
pack

Забери бонус

RePack

jed

!!Акция!!

Alien_Rage

RePack

fifa19

RePack

Assassins Creed: Odyssey

RePack

NEED FOR SPEED™ PAYBACK

4 сезон

9 сезон

Бесстыжие 9 сезон

Все сериалы

все сериалы на PB.wtf

RePack

FAR CRY 5
  

Алхимик. Эликсир Фауста / Сезон: 1 / Серии: 1-12 из 12 (Александр Муратов (II) [2015, Детектив, мелодрама, мистика, HDTVRip 720p] pb.wtf

Алхимик. Эликсир Фауста через торрент pb.wtf

Размер: 16.04 GB | Добавлен: 2 года 2 мес. назад | Торрент скачан:34 раза
Скачать  

31-07-2018 05:02 Алхимик. Эликсир Фауста Скачать торрент  

Алхимик. Эликсир Фауста
Год выпуска: 2015
Страна: Россия
Жанр: Детектив, мелодрама, мистика
Продолжительность: ~ 00:50:00
Субтитры: отсутствуют

Режиссер: Александр Муратов (II)



В ролях:

Игорь Петренко, Светлана Иванова, Виктор Раков, Евгения Добровольская, Юлия Рутберг, Павел Баршак, Фёдор Лавров, Владимир Ерёмин, Сергей Степанченко, Игорь Ясулович, Юрий Беляев, Андрей Ильин (I), Борис Щербаков, Артём Ткаченко, Владимир Коренев, Павел Меленчук, Александр Сирин, Елена Радевич, Татьяна Абрамова, Алексей Шейнин, Вячеслав Жолобов, Артём Фадеев, Владимир Гостюхин, Кирилл Жандаров

Описание:

Захватывающая история про алхимиков, чудодейственные эликсиры, тайные общества и вечную тягу читателей и зрителей к непознанному. Используя познания в органической химии, свойствах известных минералов и особую энергетику мистических элементов, они из года в год пытались приготовить эликсир бессмертия и научиться превращать в золото любой металл.

Качество: HDTVRip 720p
Формат: MKV

Видео: MPEG-4 AVC, ~ 3500 Кбит/с, 1280x720, 25 fps
Аудио: Русский (AC3, 2 ch, 192 Кбит/с)
скриншот  скриншот  скриншот  скриншот  

Общее
Уникальный идентификатор : 234244213242020900453361882922271772742 (0xB039CB619D38E29986A53C56BABE1046)
Полное имя : E:\Закачка-2\Alhimik.HDTVRip.(720p).GeneralFilm\01.Alhimik.HDTVRip.(720p).GeneralFilm.mkv
Формат : Matroska
Версия формата : Version 2
Размер файла : 1,37 Гбайт
Продолжительность : 53 м.
Общий поток : 3694 Кбит/сек
Дата кодирования : UTC 2018-07-23 17:10:38
Программа кодирования : mkvmerge v6.1.0 ('Old Devil') built on Mar 4 2013 09:10:42
Библиотека кодирования : libebml v1.3.0 + libmatroska v1.4.0

Видео
Идентификатор : 1
Формат : AVC
Формат/Информация : Advanced Video Codec
Профиль формата : High@L4.1
Параметр CABAC формата : Да
Параметр ReFrames формата : 9 кадров
Идентификатор кодека : V_MPEG4/ISO/AVC
Продолжительность : 53 м.
Битрейт : 3500 Кбит/сек
Ширина : 1280 пикселей
Высота : 720 пикселей
Соотношение сторон : 16:9
Режим частоты кадров : Постоянный
Частота кадров : 25,000 кадров/сек
Цветовое пространство : YUV
Субдискретизация насыщенности : 4:2:0
Битовая глубина : 8 бит
Тип развёртки : Прогрессивная
Бит/(Пиксели*Кадры) : 0.152
Размер потока : 1,27 Гбайт (93%)
Библиотека кодирования : x264 core 130 r2273 b3065e6
Настройки программы : cabac=1 / ref=9 / deblock=1:-2:-1 / analyse=0x3:0x133 / me=umh / subme=9 / psy=1 / psy_rd=1.00:0.15 / mixed_ref=1 / me_range=32 / chroma_me=1 / trellis=2 / 8x8dct=1 / cqm=0 / deadzone=21,11 / fast_pskip=0 / chroma_qp_offset=-3 / threads=18 / lookahead_threads=3 / sliced_threads=0 / nr=0 / decimate=0 / interlaced=0 / bluray_compat=0 / constrained_intra=0 / bframes=9 / b_pyramid=2 / b_adapt=2 / b_bias=0 / direct=3 / weightb=1 / open_gop=0 / weightp=2 / keyint=250 / keyint_min=25 / scenecut=40 / intra_refresh=0 / rc=2pass / mbtree=0 / bitrate=3500 / ratetol=1.0 / qcomp=0.60 / qpmin=0 / qpmax=69 / qpstep=4 / cplxblur=20.0 / qblur=0.5 / ip_ratio=1.40 / pb_ratio=1.30 / aq=2:1.00
Default : Да
Forced : Нет
Цветовой диапазон : Limited
Основные цвета : BT.709
Характеристики трансфера : BT.709
Коэффициенты матрицы : BT.709

Аудио
Идентификатор : 2
Формат : AC-3
Формат/Информация : Audio Coding 3
Расширение режима : CM (complete main)
Параметр Endianness формата : Big
Идентификатор кодека : A_AC3
Продолжительность : 53 м.
Вид битрейта : Постоянный
Битрейт : 192 Кбит/сек
Каналы : 2 канала
Расположение каналов : Front: L R
Частота : 48,0 КГц
Частота кадров : 31,250 кадров/сек (1536 spf)
Метод сжатия : С потерями
Размер потока : 73,0 Мбайт (5%)
Default : Да
Forced : Нет

pb.wtf



Скачать Алхимик. Эликсир Фауста через торрент http://a.radikal.ru/a02/1807/ee/eb8340c2e819.jpg Скачать фильм Алхимик. Эликсир Фауста через торрент бесплантно в хорошем качестве Описание: Захватывающая история про алхимиков, чудодейственные эликсиры, тайные общества и вечную тягу читателей и зрителей к непознанному. ... 10 10 4
Торрент: Зарегистрирован [2018-08-02 14:29] · скачан: 34 раз
Статус: √ проверено
Размер: 16.04 GB
Как cкачать? Как скачать Алхимик. Эликсир Фауста через торрент | qTorrent

% Раздел Тема Автор DL S | L
Наши сериалы [ 8.69 GB ] Алхимик. Эликсир Фауста / Сезон: 1 / Серии: 1-12 из 12 [2015 HDTVRip] bober100 Скачать
1 | 0
Наши сериалы [ 28.28 GB ] Алхимик. Эликсир Фауста / Сезон: 1 / Серии: 1-12 из 12 [2015 HDTV 1080i] bober100 Скачать
1 | 0
Наши сериалы [ 7.84 GB ] Алхимик. Эликсир Фауста / Сезон: 1 / Серии: 1-12 из 12 [2015 SATRip-AVC] bober100 Скачать
1 | 0

28-11-2019 20:33  

Отключить всю рекламу на сайте

    Дорогой пользователь! Огромная просьба, поблагодарите релизера, оцените раздачу и оставьте свои комментарий, если Вы скачали Алхимик. Эликсир Фауста через торрент бесплатно! Внесите свою лепту в развитие PiratBit!
    Комментировать посты могут только пользователи прошедшие не сложную регистрацию
    Показать сообщения:    

    Алхимик. Эликсир Фауста через торрент
    Скачать бесплатно Алхимик. Эликсир Фауста
    Алхимик. Эликсир Фауста скачать торрент
    Алхимик. Эликсир Фауста смотреть онлайн
    Cкачать фильм Алхимик. Эликсир Фауста бесплатно
    Алхимик. Эликсир Фауста скачать торрент в хорошем качестве
    Алхимик. Эликсир Фауста смотреть онлайн бесплатно в хорошем качестве


    Вы не можете начинать темы
    Вы не можете отвечать на сообщения
    Вы не можете редактировать свои сообщения
    Вы не можете удалять свои сообщения
    Вы не можете голосовать в опросах
    Вы не можете прикреплять файлы к сообщениям
    Вы можете скачивать файлы