новый адрес пиратбит piratbit
Мега распродажа FORZA HORIZON 4 ULTIMATE+ВСЕ DLC+ОНЛАЙН всего за 499р. 349 руб. (супер цена). Внимание количество ограничено!!!

iTunes

1+1

iTunes

мы

iTunes

1

iTunes

Чернобыль

iTunes

Ральф против интернета

Лицензия

ПШазам

Лицензия

Игра престолов

Лицензия

30
pack

ВАЖНО

!!Акция!!

Alien_RageХит недели

RePack

Resident Evil 21

ИГРА 18+

pack

RePack

Metro:Exodus

!!Акция!!

Alien_Rage

RePack

fifa19

RePack

Assassins Creed: Odyssey

RePack

NEED FOR SPEED™ PAYBACK

3 сезон

9 сезон

Бесстыжие 9 сезон

Все сериалы

все сериалы на PB.wtf

RePack

FAR CRY 5
Ребята, катастрофически не хватает 1900р. для оплаты серверов за Октябрь (всвязи с блокировками трафик упал в 3 раза), 1-2р., выручайте.
  

А если это любовь? (Юлий Райзман) [1961, СССР, драма, DVDRip от AVP Studio] pb.wtf

А если это любовь? через торрент pb.wtf

Размер: 742 MB | Добавлен: 1 год 3 мес. назад | Торрент скачан:12 раз
Скачать  

31-07-2018 07:23 А если это любовь? Скачать торрент  

А если это любовь?
Страна: СССР
Производство: Мосфильм

Жанр: драма
Год выпуска: 1961
Продолжительность: 01:36:11

Перевод: Не требуется
Cубтитры: нет
Оригинальная аудиодорожка: русский

Режиссер: Юлий Райзман

В ролях:
Жанна Прохоренко, Игорь Пушкарёв, Александра Назарова, Нина Шорина, Юлия Цоглин, Наталья Батырева, Андрей Миронов, Евгений Жариков, Анатолий Голик, Геннадий Юденич, Надежда Федосова, Ольга Шахова, Лена Шкаликова, Анна Павлова (IV), Виктор Хохряков, Мария Андрианова, Мария Дурасова, Анастасия Георгиевская, Нина Белобородова, Евгений Быкадоров...
Об актёрах подробней

Описание:
Десятиклассники Ксеня и Борис однажды осознают, что их связывает нечто большее, чем просто дружба. Но первое, робкое чувство, не оставшееся тайной для окружающих, сталкивается с насмешками одноклассников, ханжеством и грубым вмешательством взрослых - в первую очередь педагогов. Сумеют ли юные герои сохранить свою любовь?..

Источник: DVD5 R5
Качество видео: DVDRip
Формат видео: AVI

Видео: 688х384 (16:9), 25 fps, XviD ~ 877 kbps avg, 0.133 bit/pixel
Аудио: 48 kHz, Dolby Digital AC3 2.0, 192 kbps

Раздача от:
Общее
Полное имя : A.esli.ehto.lyubov.1961.DVDRip_[New-team]_by_AVP_Studio.avi
Формат : AVI
Формат/Информация : Audio Video Interleave
Размер файла : 742 Мбайт
Продолжительность : 1 ч. 36 м.
Общий поток : 1079 Кбит/сек
Программа кодирования : VirtualDubMod 1.5.10.3 | www.virtualdub-fr.org || (build 2550/release)
Библиотека кодирования : VirtualDubMod build 2550/release

Видео
Идентификатор : 0
Формат : MPEG-4 Visual
Профиль формата : Advanced Simple@L5
Настройки формата : BVOP1 / Custom Matrix
Параметр BVOP формата : 1
Параметр QPel формата : Нет
Параметр GMC формата : Без точки перехода
Параметр матрицы формата : Выборочная
Идентификатор кодека : XVID
Идентификатор кодека/Подсказка : XviD
Продолжительность : 1 ч. 36 м.
Битрейт : 877 Кбит/сек
Ширина : 688 пикселей
Высота : 384 пикселя
Соотношение сторон : 16:9
Частота кадров : 25,000 кадров/сек
Цветовое пространство : YUV
Субдискретизация насыщенности : 4:2:0
Битовая глубина : 8 бит
Тип развёртки : Прогрессивная
Метод сжатия : С потерями
Бит/(Пиксели*Кадры) : 0.133
Размер потока : 604 Мбайт (81%)
Библиотека кодирования : XviD 73

Аудио
Идентификатор : 1
Формат : AC-3
Формат/Информация : Audio Coding 3
Идентификатор кодека : 2000
Продолжительность : 1 ч. 36 м.
Вид битрейта : Постоянный
Битрейт : 192 Кбит/сек
Каналы : 2 канала
Расположение каналов : Front: L R
Частота : 48,0 КГц
Частота кадров : 31,250 кадров/сек (1536 SPF)
Битовая глубина : 16 бит
Метод сжатия : С потерями
Размер потока : 132 Мбайт (18%)
Выравнивание : Разделение по промежуткам
Продолжительность промежутка : 40 мс. (1,00 видеокадр)
Время предзагрузки промежутка : 500 мс
pb.wtf



Скачать А если это любовь? через торрент http://picplus.ru/img/1807/31/0c67f3f1.png Скачать фильм А если это любовь? через торрент бесплантно в хорошем качестве Описание:Десятиклассники Ксеня и Борис однажды осознают, что их связывает нечто большее, чем просто дружба. Но первое, робкое чувство, не ... 10 10 1
Info! Золотая раздача, скачанное не засчитывается.
Торрент: Зарегистрирован [2018-07-31 07:23] · скачан: 12 раз
Статус: √ проверено
Размер: 742 MB
Как cкачать? Как скачать А если это любовь? через торрент | qTorrent


>> Регистрируемся здесь <<






Отзывы и комментарии о схеме читаем и пишем здесь: ---> Отзывы и комментарии о схеме

Новые благодарочки в телеграм довольных пользователей:
скриншот   скриншот   скриншот   скриншот   скриншот
    Дорогой пользователь! Огромная просьба, поблагодарите релизера, оцените раздачу и оставьте свои комментарий, если Вы скачали А если это любовь? через торрент бесплатно! Внесите свою лепту в развитие PiratBit!
    Комментировать посты могут только пользователи прошедшие не сложную регистрацию
    Показать сообщения:    

    А если это любовь? через торрент
    Скачать бесплатно А если это любовь?
    А если это любовь? скачать торрент
    А если это любовь? смотреть онлайн
    Cкачать фильм А если это любовь? бесплатно
    А если это любовь? скачать торрент в хорошем качестве
    А если это любовь? смотреть онлайн бесплатно в хорошем качестве


    Вы не можете начинать темы
    Вы не можете отвечать на сообщения
    Вы не можете редактировать свои сообщения
    Вы не можете удалять свои сообщения
    Вы не можете голосовать в опросах
    Вы не можете прикреплять файлы к сообщениям
    Вы можете скачивать файлы