1 сезон

3 сезон

iTunes

1

iTunes

MVO

iTunes

13

1 сезон

RePack

30

Deluxe

pack

Лицензия

ВАЖНО

ИГРА 18+

pack

RePack

MK11

RePack

jed

RePack

fifa19

RePack

RDR2

RePack

NEED FOR SPEED™ PAYBACK

4 сезон

9 сезон

Бесстыжие 9 сезон

Все сериалы

все сериалы на PB.wtf

RePack

FAR CRY 5

Anonymous, доброй ночи, мы катастрофически не успеваем собрать деньги на оплату серверов, помогите нам пожалуйста 5,10,15р., для нас важна любая помощь . В качестве благодарности мы отключим Вам всю рекламу на сайте (укажите свой ник в строку Ваше имя)!

×
  
Magnet ссылка

Волки (Александр Колбышев) [2009, драма, WEB-DLRip от R.G. Resident] pb.wtf

Волки через торрент pb.wtf

Размер: 1.46 GB | Добавлен: 2 года 11 мес. назад | Торрент скачан:265 раз
Скачать  

31-07-2018 10:40 Волки Скачать торрент  

Волки

Год выпуска: 2009
Страна: Беларусь
Жанр: драма
Продолжительность: 01:45:39
Перевод: Не требуется [Русский]
Режиссер: Александр Колбышев
В ролях:

Дмитрий Ульянов (Кирилл Полетаев), Андрей Панин (Зиновий Петрович, капитан НКВД), Коля Спиридонов (Шурка), Владимир Гостюхин (Кузьмич, председатель колхоза), Тамара Миронова (Анна Захаровна), Оксана Лесная (Клавдия Ивановна), Диана Запрудская (Танька), Олег Волчек, Светлана Никифорова (Полина, жена Кирилла), Галина Кухальская (жена Кузьмича), Сергей Власов (Пырин), Анатолий Терпицкий (председатель)
Описание:
Побег арестанта Кирилла Полетаева ставит в сложную ситуацию дорогих ему людей. Каждый из них, ни на секунду не задумываясь, делает все возможное и невозможное, чтобы помочь ему, зная, что заплатит за это самую дорогую цену - свою жизнь.
Рейтинг:
rating
Качество: WEB-DLRip
Формат: AVI
Видео: XviD, 704x400 (16:9), 1519 kbps, 25 fps, 0,216 bpp
Аудио: AC3 / 5.1 / 48 kHz / 448 kbps /

General
Complete name : F:\Volki.2009.WEB-DLRip.R.G.Resident.avi
Format : AVI
Format/Info : Audio Video Interleave
File size : 1.46 GiB
Duration : 1 h 45 min
Overall bit rate : 1 977 kb/s
Writing application : VirtualDubModRus 1.5.10.2 (build 2542/release)
Writing library : VirtualDubMod build 2542/release

Video
ID : 0
Format : MPEG-4 Visual
Format profile : Advanced Simple@L5
Format settings, BVOP : 1
Format settings, QPel : No
Format settings, GMC : No warppoints
Format settings, Matrix : Custom
Codec ID : XVID
Codec ID/Hint : XviD
Duration : 1 h 45 min
Bit rate : 1 520 kb/s
Width : 704 pixels
Height : 400 pixels
Display aspect ratio : 16:9
Frame rate : 25.000 FPS
Color space : YUV
Chroma subsampling : 4:2:0
Bit depth : 8 bits
Scan type : Progressive
Compression mode : Lossy
Bits/(Pixel*Frame) : 0.216
Stream size : 1.12 GiB (77%)
Writing library : XviD 73

Audio
ID : 1
Format : AC-3
Format/Info : Audio Coding 3
Mode extension : CM (complete main)
Format settings, Endianness : Big
Codec ID : 2000
Duration : 1 h 45 min
Bit rate mode : Constant
Bit rate : 448 kb/s
Channel(s) : 6 channels
Channel positions : Front: L C R, Side: L R, LFE
Sampling rate : 48.0 kHz
Frame rate : 31.250 FPS (1536 spf)
Compression mode : Lossy
Stream size : 338 MiB (23%)
Alignment : Split accross interleaves
Interleave, duration : 40 ms (1.00 video frame)
Interleave, preload duration : 500 ms
pb.wtf



Скачать Волки через торрент http://i77.fastpic.ru/big/2016/0417/a7/808a646271c761f7c7d87df3d366b3a7.png Скачать фильм Волки через торрент бесплантно в хорошем качестве Описание: Побег арестанта Кирилла Полетаева ставит в сложную ситуацию дорогих ему людей. Каждый из них, ни на секунду не задумываясь, ... 9.1 10 11
Info! Золотая раздача, скачанное не засчитывается.
Торрент: Зарегистрирован [2018-07-31 10:40] · скачан: 265 раз
Статус: √ проверено
Размер: 1.46 GB
Как cкачать? Как скачать Волки через торрент | UTorrent

% Раздел Тема Автор DL S | L
Наши сериалы [ 2.53 GB ] По ту сторону волков [2002 DVDRip] serg68rus Скачать
1 | 0
Фильмы 2001-2005 [ 1.46 GB ] Братство волка / Le Pacte Des Loups [2001 BDRip MVO лицензия] Dean24 Скачать
1 | 0
Фильмы [HD 720p, 1080p] (Хороший звук DUB, MVO) [ 11.25 GB ] Человек-волк / The Wolfman [2010 BDRip 1080p] smaster Скачать
1 | 0
RTS (стратегии в реальном времени) [ 3.12 GB ] Star Wolves 2: The Civil War / Звёздные волки 2: Гражданская война {1.1} [RePack RU Add-on / Strategy / 3D] от R.G. BoxPack R.G.BoxPack Скачать
1 | 0
Фантастика [ 1.67 GB ] Стивен Кинг - Темная Башня II - Извлечение троих [Роман Волков 2009] IceSead Скачать
1 | 0
Наши мультфильмы [ 1.37 GB ] Иван Царевич и Серый Волк 2 [2013 мультфильм DVDRip] MihailHD Скачать
1 | 0
Фильмы (Blu-ray, BD-Remux, HDDVD) [ 36.76 GB ] Волк с Уолл-стрит / The Wolf of Wall Street [2013 биография BDRemux ] DVO VO Ворон Скачать
1 | 0

28-11-2019 20:33  

Отключить всю рекламу на сайте

01-08-2018 11:12 Волки Скачать торрент  

Опять антисоветчина.Надоели.pb.wtf



    Дорогой пользователь! Огромная просьба, поблагодарите релизера, оцените раздачу и оставьте свои комментарий, если Вы скачали Волки через торрент бесплатно! Внесите свою лепту в развитие PiratBit!
    Комментировать посты могут только пользователи прошедшие не сложную регистрацию
    Показать сообщения:    

    Волки через торрент
    Скачать бесплатно Волки
    Волки скачать торрент
    Волки смотреть онлайн
    Cкачать фильм Волки бесплатно
    Волки скачать торрент в хорошем качестве
    Волки смотреть онлайн бесплатно в хорошем качестве


    Вы не можете начинать темы
    Вы не можете отвечать на сообщения
    Вы не можете редактировать свои сообщения
    Вы не можете удалять свои сообщения
    Вы не можете голосовать в опросах
    Вы не можете прикреплять файлы к сообщениям
    Вы можете скачивать файлы