Ссылка на приватное зеркало нашего сайта всего за 1$. Внимание количество ограничено!!!

2 сезон

iTunes

1 сезон

1

2 сезон

2 сезон

iTunes

1 сезон

RePack

30

Ultimate

ВАЖНО

ИГРА 18+

pack

RePack

MK11
pack

Забери бонус

RePack

jed

!!Акция!!

Alien_Rage

RePack

fifa19

RePack

Assassins Creed: Odyssey

RePack

NEED FOR SPEED™ PAYBACK

4 сезон

9 сезон

Бесстыжие 9 сезон

Все сериалы

все сериалы на PB.wtf

RePack

FAR CRY 5
  

Бросок кобры / G.I. Joe: The Rise of Cobra (Стивен Соммерс) [2009, фантастика, боевик, триллер, UHD BDRemux 2160p] DUB (rus, ukr) + 2xAVO pb.wtf

Бросок кобры через торрент pb.wtf

Размер: 50.1 GB | Добавлен: 2 года 4 мес. назад | Торрент скачан:32 раза
Скачать  

01-08-2018 02:17 Бросок кобры Скачать торрент  

Бросок кобры / G.I. Joe: The Rise of Cobra«Когда остальные сдаются, они идут до конца»
Год выпуска: 2009
Страна: США, Чехия
Жанр: фантастика, боевик, триллер, приключения
Продолжительность: 01:57:59
Перевод: Дублированный, Одноголосый закадровый (Авторский)
Субтитры: Русские, украинские, английские
Режиссер: Стивен Соммерс
В ролях:

Адевале Акинойе-Агбаже (Heavy Duty), Кристофер Экклстон (McCullen), Грегори Фетусси (Baron de Cobray), Джозеф Гордон-Левитт (The Doctor), Лео Ховард (Young Snake Eyes), Каролина Куркова (Cover Girl), Ли Бён-хон (Storm Shadow), Сиенна Миллер (Baroness), Дэвид Мюррэй (James McCullen - 1641), Рэйчел Николс (Scarlett), Кевин Дж. О’Коннор (Dr. Mindbender), Джералд Окамура (Hard Master)
Описание:
Базирующееся в Египте высокотехнологичное международное военное подразделение, известное как G.I. Joe, противостоит зловещей корпорации, руководимой знаменитым оружейным бароном.
Рейтинг:

MPAA: PG-13 - Детям до 13 лет просмотр не желателен
Качество: UHD BDRemux 2160p
Формат: MKV
Видео: HEVC, HDR, 49.3 Мбит/с, 3840x2160, 23.976 Кадр/с
Аудио #1: AC-3, 48.0 kHz, 6 ch, 640 kb/s, CBR (Russian) [Дублированный]
Аудио #2: AC-3, 48.0 kHz, 6 ch, 448 kb/s, CBR (Ukrainian) [Дублированный]
Аудио #3: DTS MA / Core, 48.0 kHz, 6 ch, 4 119 kb/s / 1 509 kb/s, VBR / CBR (Russian) [AVO, А.Гаврилов]
Аудио #4: AC-3, 48.0 kHz, 6 ch, 448 kb/s, CBR (Russian) [AVO, Лизнев]
Аудио #5: DTS MA / Core, 48.0 kHz, 6 ch, 4 910 kb/s / 1 509 kb/s, VBR / CBR (English)
Аудио #6: AC-3, 48.0 kHz, 6 ch, 640 kb/s, CBR (English)
Аудио #7: AC-3, 48.0 kHz, 2 ch, 224 kb/s, CBR (English)
Кандидатура Сэма Уортингтона рассматривалась на роль Дюка.
Изначально Дэвид Мюррэй должен был сыграть Дестро.
Скип Вудс написал раннюю версию сценария с участием Алекса Манна и его жены Скарлетт. Главным злодеем должен был стать Райан.
Изначально Лоренцо Ди Бонавентура хотел, чтобы Марк Уолберг сыграл Дюка.
Коммону предлагали роль Роадблока, кузена Хэви Дюти. Он отказался. В дальнейшем роли Хэви Дюти и его кузена переписали, соединив их в один персонаж.
Для подготовки к роли Баронессы Сиенна Миллер усиленно тренировалась четыре месяца, набрав пять фунтов (около двух килограммов) мышечной массы.
Все сцены с участием Денниса Куэйда были сняты в первые два месяца съёмок.
В 2003 году Дон Мерфи должен был стать продюсером фильма, однако он договорился с «Hasbro Company», что будет продюсировать «Трансформеров» (2007).
Ларри Хама, создатель «G.I. Joe» (1985), был нанят в качестве консультанта.
Изначально Чаннинг Татум отклонил предложение сыграть в фильме, т. к. по его мнению, кино прославляло войну. Однако когда он прочитал сценарий, он передумал, т. к. картина ему больше представлялась как фантастический экшн-триллер, а не военное кино.
Друзья Ченнинг Татум и Джозеф Гордон-Левитт сыграли заклятых врагов — Дюка и Командира Кобры.
Рэй Парк, сыгравший Змеиные Глаза, в качестве подготовки к роли тренировался вушу, а также изучал персонажа в многочисленных комиксах и сериалах о G.I. Joe.
Экшн-сцены, действие которых происходит на парижских улицах, снимались в Праге.
Деннис Куэйд согласился сыграть Генерала Хоука по настоянию своего сына, являющегося большим поклонником G.I. Joe.
Рэйчел Николс была первоначальным выбором продюсеров на роль Скарлетт О’Хара.
Создателям настолько понравилось работать вместе с Деннисом Куэйдом, что специально для него в фильм добавили около 10-15 сцен.
Дизайн маски Командира Кобры был значительно изменен, т. к. версия 1985 года слишком сильно напоминали маски Ку Клукс Клана.
Частично манеру речи и голос своего персонажа Джозеф Гордон-Левитт старался воспроизвести у Криса Латта из «G.I. Joe» (1985), однако по большей части он использовал свое воображение в создании персонажа.
Съёмочный процесс длился 82 дня вместо предусмотренных 95 дней.
Фильм снимался практически без сценария и режиссёру приходилось придумывать всё находу из-за сжатых сроков, которые студия выделила на съёмку фильма.
Декорация для съёмки импульсной пушки на базе Кобры была высотой с пятиэтажный дом.
Стивен Соммерс 20 лет назад написал сценарий к фильму про костюмы-ускорители, но его тогда никто не купил. Свой замысел он смог воплотить в «Броске кобры».
Общее
Уникальный идентификатор : 268937733896598623256373735960262352959 (0xCA5386035B2B9A834635DB65B09A203F)
Полное имя : G.I.Joe.The.Rise.of.Cobra.2009.UHD.BDRemux.2160p.HEVC.HDR.IVA(RUS.UKR.ENG).ExKinoRay.mkv
Формат : Matroska
Версия формата : Version 4 / Version 2
Размер файла : 50,1 Гбайт
Продолжительность : 1 ч. 57 м.
Общий поток : 60,8 Мбит/сек
Название фильма : Бросок кобры / G.I. Joe: The Rise of Cobra ( 2009 ) UHD BDRemux | HDR, 4K | IVA(RUS.UKR.ENG) | ExKinoRay
Дата кодирования : UTC 2018-07-31 22:35:05
Программа кодирования : mkvmerge v25.0.0 ('Prog Noir') 64-bit
Библиотека кодирования : libebml v1.3.6 + libmatroska v1.4.9
Обложка : Yes
Attachments : cover

Видео
Идентификатор : 1
Формат : HEVC
Формат/Информация : High Efficiency Video Coding
Коммерческое название : HDR10
Профиль формата : Main 10@L5.1@High
Идентификатор кодека : V_MPEGH/ISO/HEVC
Продолжительность : 1 ч. 57 м.
Битрейт : 49,3 Мбит/сек
Ширина : 3840 пикселей
Высота : 2160 пикселей
Соотношение сторон : 16:9
Режим частоты кадров : Постоянный
Частота кадров : 23,976 (24000/1001) кадра/сек
Цветовое пространство : YUV
Субдискретизация насыщенности : 4:2:0 (Type 2)
Битовая глубина : 10 бит
Бит/(Пиксели*Кадры) : 0.248
Размер потока : 40,7 Гбайт (81%)
Заголовок : G.I.Joe.The.Rise.of.Cobra.2009.UHD.BDRemux.2160p.HEVC.HDR
Язык : English
Default : Да
Forced : Нет
Цветовой диапазон : Limited
Основные цвета : BT.2020
Характеристики трансфера : PQ
Коэффициенты матрицы : BT.2020 non-constant
MasteringDisplay_ColorPrimaries : Display P3
MasteringDisplay_Luminance : min: 0.0001 cd/m2, max: 1000 cd/m2

Аудио #1
Идентификатор : 2
Формат : AC-3
Формат/Информация : Audio Coding 3
Идентификатор кодека : A_AC3
Продолжительность : 1 ч. 57 м.
Вид битрейта : Постоянный
Битрейт : 640 Кбит/сек
Каналы : 6 каналов
Расположение каналов : Front: L C R, Side: L R, LFE
Частота : 48,0 КГц
Частота кадров : 31,250 кадров/сек (1536 SPF)
Битовая глубина : 16 бит
Метод сжатия : С потерями
Размер потока : 540 Мбайт (1%)
Заголовок : | Дублированный |
Язык : Russian
ServiceKind/String : Complete Main
Default : Да
Forced : Нет

Аудио #2
Идентификатор : 3
Формат : AC-3
Формат/Информация : Audio Coding 3
Идентификатор кодека : A_AC3
Продолжительность : 1 ч. 57 м.
Вид битрейта : Постоянный
Битрейт : 448 Кбит/сек
Каналы : 6 каналов
Расположение каналов : Front: L C R, Side: L R, LFE
Частота : 48,0 КГц
Частота кадров : 31,250 кадров/сек (1536 SPF)
Битовая глубина : 16 бит
Метод сжатия : С потерями
Размер потока : 378 Мбайт (1%)
Заголовок : | Дублированный |
Язык : Ukrainian
ServiceKind/String : Complete Main
Default : Нет
Forced : Нет

Аудио #3
Идентификатор : 4
Формат : DTS
Формат/Информация : Digital Theater Systems
Профиль формата : MA / Core
Идентификатор кодека : A_DTS
Продолжительность : 1 ч. 57 м.
Вид битрейта : Переменный / Постоянный
Битрейт : 4119 Кбит/сек / 1509 Кбит/сек
Каналы : 6 каналов
Расположение каналов : Front: L C R, Side: L R, LFE
Частота : 48,0 КГц
Частота кадров : 93,750 кадра/сек (512 SPF)
Битовая глубина : 24 бит
Метод сжатия : Без потерь / Lossy
Размер потока : 3,40 Гбайт (7%)
Заголовок : | AVO, А.Гаврилов |
Язык : Russian
Default : Нет
Forced : Нет

Аудио #4
Идентификатор : 5
Формат : AC-3
Формат/Информация : Audio Coding 3
Идентификатор кодека : A_AC3
Продолжительность : 1 ч. 57 м.
Вид битрейта : Постоянный
Битрейт : 448 Кбит/сек
Каналы : 6 каналов
Расположение каналов : Front: L C R, Side: L R, LFE
Частота : 48,0 КГц
Частота кадров : 31,250 кадров/сек (1536 SPF)
Битовая глубина : 16 бит
Метод сжатия : С потерями
Размер потока : 378 Мбайт (1%)
Заголовок : | AVO, Лизнев |
Язык : Russian
ServiceKind/String : Complete Main
Default : Нет
Forced : Нет

Аудио #5
Идентификатор : 6
Формат : DTS
Формат/Информация : Digital Theater Systems
Профиль формата : MA / Core
Идентификатор кодека : A_DTS
Продолжительность : 1 ч. 57 м.
Вид битрейта : Переменный / Постоянный
Битрейт : 4910 Кбит/сек / 1509 Кбит/сек
Каналы : 6 каналов
Расположение каналов : Front: L C R, Side: L R, LFE
Частота : 48,0 КГц
Частота кадров : 93,750 кадра/сек (512 SPF)
Битовая глубина : 24 бит
Метод сжатия : Без потерь / Lossy
Размер потока : 4,05 Гбайт (8%)
Заголовок : | Original |
Язык : English
Default : Нет
Forced : Нет

Аудио #6
Идентификатор : 7
Формат : AC-3
Формат/Информация : Audio Coding 3
Идентификатор кодека : A_AC3
Продолжительность : 1 ч. 57 м.
Вид битрейта : Постоянный
Битрейт : 640 Кбит/сек
Каналы : 6 каналов
Расположение каналов : Front: L C R, Side: L R, LFE
Частота : 48,0 КГц
Частота кадров : 31,250 кадров/сек (1536 SPF)
Битовая глубина : 16 бит
Метод сжатия : С потерями
Размер потока : 540 Мбайт (1%)
Заголовок : | Audiodescription |
Язык : English
ServiceKind/String : Complete Main
Default : Нет
Forced : Нет

Аудио #7
Идентификатор : 8
Формат : AC-3
Формат/Информация : Audio Coding 3
Идентификатор кодека : A_AC3
Продолжительность : 1 ч. 57 м.
Вид битрейта : Постоянный
Битрейт : 224 Кбит/сек
Каналы : 2 канала
Расположение каналов : Front: L R
Частота : 48,0 КГц
Частота кадров : 31,250 кадров/сек (1536 SPF)
Битовая глубина : 16 бит
Метод сжатия : С потерями
Размер потока : 189 Мбайт (0%)
Заголовок : | Commentary |
Язык : English
ServiceKind/String : Complete Main
Default : Нет
Forced : Нет

Текст #1
Идентификатор : 9
Формат : UTF-8
Идентификатор кодека : S_TEXT/UTF8
Идентификатор кодека/Информация : UTF-8 Plain Text
Продолжительность : 1 ч. 41 м.
Битрейт : 1 бит/сек
ElementCount : 21
Размер потока : 794 байт (0%)
Заголовок : Forced
Язык : Russian
Default : Да
Forced : Да

Текст #2
Идентификатор : 10
Формат : UTF-8
Идентификатор кодека : S_TEXT/UTF8
Идентификатор кодека/Информация : UTF-8 Plain Text
Продолжительность : 1 ч. 47 м.
Битрейт : 89 бит/сек
ElementCount : 1173
Размер потока : 70,3 Кбайт (0%)
Заголовок : Full
Язык : Russian
Default : Нет
Forced : Нет

Текст #3
Идентификатор : 11
Формат : UTF-8
Идентификатор кодека : S_TEXT/UTF8
Идентификатор кодека/Информация : UTF-8 Plain Text
Продолжительность : 1 ч. 56 м.
Битрейт : 88 бит/сек
ElementCount : 1166
Размер потока : 75,4 Кбайт (0%)
Заголовок : Full
Язык : Ukrainian
Default : Нет
Forced : Нет

Текст #4
Идентификатор : 12
Формат : UTF-8
Идентификатор кодека : S_TEXT/UTF8
Идентификатор кодека/Информация : UTF-8 Plain Text
Продолжительность : 1 ч. 47 м.
Битрейт : 55 бит/сек
ElementCount : 1143
Размер потока : 43,6 Кбайт (0%)
Заголовок : Full
Язык : English
Default : Нет
Forced : Нет

Меню
00:00:00.000 : en:Chapter 1
00:06:07.700 : en:Chapter 2
00:13:38.943 : en:Chapter 3
00:20:15.005 : en:Chapter 4
00:24:18.039 : en:Chapter 5
00:28:20.615 : en:Chapter 6
00:33:14.575 : en:Chapter 7
00:40:58.122 : en:Chapter 8
00:47:06.031 : en:Chapter 9
00:51:19.034 : en:Chapter 10
00:54:17.837 : en:Chapter 11
01:00:58.571 : en:Chapter 12
01:05:46.400 : en:Chapter 13
01:12:48.489 : en:Chapter 14
01:18:54.104 : en:Chapter 15
01:24:13.298 : en:Chapter 16
01:29:21.981 : en:Chapter 17
01:38:15.472 : en:Chapter 18
01:43:36.418 : en:Chapter 19
01:49:06.581 : en:Chapter 20
pb.wtf



Скачать Бросок кобры через торрент https://a.radikal.ru/a01/1807/be/18809de55359.jpg Скачать фильм Бросок кобры через торрент бесплантно в хорошем качестве Описание: Базирующееся в Египте высокотехнологичное международное военное подразделение, известное как G.I. Joe, противостоит зловещей ... 10 10 4
Info! Золотая раздача, скачанное не засчитывается.
Торрент: Зарегистрирован [2018-08-01 02:17] · скачан: 32 раз
Статус: √ проверено
Размер: 50.1 GB
Как cкачать? Как скачать Бросок кобры через торрент | qTorrent

% Раздел Тема Автор DL S | L
Ultra HD (UHD: 2K, 4K, 8K) — видео сверхвысокой чёткости [ 63.47 GB ] Бросок кобры / G.I. Joe: The Rise of Cobra: Dilogy [2009-2013 UHD BDRip2160p] DUB + 3xAVO sheker187 Скачать
1 | 0

28-11-2019 20:33  

Отключить всю рекламу на сайте

    Дорогой пользователь! Огромная просьба, поблагодарите релизера, оцените раздачу и оставьте свои комментарий, если Вы скачали Бросок кобры через торрент бесплатно! Внесите свою лепту в развитие PiratBit!
    Комментировать посты могут только пользователи прошедшие не сложную регистрацию
    Показать сообщения:    

    Бросок кобры через торрент
    Скачать бесплатно Бросок кобры
    Бросок кобры скачать торрент
    Бросок кобры смотреть онлайн
    Cкачать фильм Бросок кобры бесплатно
    Бросок кобры скачать торрент в хорошем качестве
    Бросок кобры смотреть онлайн бесплатно в хорошем качестве


    Вы не можете начинать темы
    Вы не можете отвечать на сообщения
    Вы не можете редактировать свои сообщения
    Вы не можете удалять свои сообщения
    Вы не можете голосовать в опросах
    Вы не можете прикреплять файлы к сообщениям
    Вы можете скачивать файлы